  0
SECTION
  2
HEADER
  9
$ACADVER
  1
AC1015
  9
$ACADMAINTVER
 70
     6
  9
$DWGCODEPAGE
  3
ANSI_1252
  9
$INSBASE
 10
0.0
 20
0.0
 30
0.0
  9
$EXTMIN
 10
0.0
 20
0.0
 30
0.0
  9
$EXTMAX
 10
297.0000000000001
 20
210.0000000000001
 30
0.0
  9
$LIMMIN
 10
0.0
 20
0.0
  9
$LIMMAX
 10
12.0
 20
9.0
  9
$ORTHOMODE
 70
     0
  9
$REGENMODE
 70
     1
  9
$FILLMODE
 70
     1
  9
$QTEXTMODE
 70
     0
  9
$MIRRTEXT
 70
     1
  9
$LTSCALE
 40
1.0
  9
$ATTMODE
 70
     1
  9
$TEXTSIZE
 40
0.2
  9
$TRACEWID
 40
0.05
  9
$TEXTSTYLE
  7
Standard
  9
$CLAYER
  8
0
  9
$CELTYPE
  6
ByLayer
  9
$CECOLOR
 62
   256
  9
$CELTSCALE
 40
1.0
  9
$DISPSILH
 70
     0
  9
$DIMSCALE
 40
1.0
  9
$DIMASZ
 40
0.18
  9
$DIMEXO
 40
0.0625
  9
$DIMDLI
 40
0.38
  9
$DIMRND
 40
0.0
  9
$DIMDLE
 40
0.0
  9
$DIMEXE
 40
0.18
  9
$DIMTP
 40
0.0
  9
$DIMTM
 40
0.0
  9
$DIMTXT
 40
0.18
  9
$DIMCEN
 40
0.09
  9
$DIMTSZ
 40
0.0
  9
$DIMTOL
 70
     0
  9
$DIMLIM
 70
     0
  9
$DIMTIH
 70
     1
  9
$DIMTOH
 70
     1
  9
$DIMSE1
 70
     0
  9
$DIMSE2
 70
     0
  9
$DIMTAD
 70
     0
  9
$DIMZIN
 70
     0
  9
$DIMBLK
  1

  9
$DIMASO
 70
     1
  9
$DIMSHO
 70
     1
  9
$DIMPOST
  1

  9
$DIMAPOST
  1

  9
$DIMALT
 70
     0
  9
$DIMALTD
 70
     2
  9
$DIMALTF
 40
25.4
  9
$DIMLFAC
 40
1.0
  9
$DIMTOFL
 70
     0
  9
$DIMTVP
 40
0.0
  9
$DIMTIX
 70
     0
  9
$DIMSOXD
 70
     0
  9
$DIMSAH
 70
     0
  9
$DIMBLK1
  1

  9
$DIMBLK2
  1

  9
$DIMSTYLE
  2
Standard
  9
$DIMCLRD
 70
     0
  9
$DIMCLRE
 70
     0
  9
$DIMCLRT
 70
     0
  9
$DIMTFAC
 40
1.0
  9
$DIMGAP
 40
0.09
  9
$DIMJUST
 70
     0
  9
$DIMSD1
 70
     0
  9
$DIMSD2
 70
     0
  9
$DIMTOLJ
 70
     1
  9
$DIMTZIN
 70
     0
  9
$DIMALTZ
 70
     0
  9
$DIMALTTZ
 70
     0
  9
$DIMUPT
 70
     0
  9
$DIMDEC
 70
     4
  9
$DIMTDEC
 70
     4
  9
$DIMALTU
 70
     2
  9
$DIMALTTD
 70
     2
  9
$DIMTXSTY
  7
Standard
  9
$DIMAUNIT
 70
     0
  9
$DIMADEC
 70
     0
  9
$DIMALTRND
 40
0.0
  9
$DIMAZIN
 70
     0
  9
$DIMDSEP
 70
    46
  9
$DIMATFIT
 70
     3
  9
$DIMFRAC
 70
     0
  9
$DIMLDRBLK
  1

  9
$DIMLUNIT
 70
     2
  9
$DIMLWD
 70
    -2
  9
$DIMLWE
 70
    -2
  9
$DIMTMOVE
 70
     0
  9
$LUNITS
 70
     2
  9
$LUPREC
 70
     4
  9
$SKETCHINC
 40
0.1
  9
$FILLETRAD
 40
0.5
  9
$AUNITS
 70
     0
  9
$AUPREC
 70
     0
  9
$MENU
  1
.
  9
$ELEVATION
 40
0.0
  9
$PELEVATION
 40
0.0
  9
$THICKNESS
 40
0.0
  9
$LIMCHECK
 70
     0
  9
$CHAMFERA
 40
0.5
  9
$CHAMFERB
 40
0.5
  9
$CHAMFERC
 40
1.0
  9
$CHAMFERD
 40
0.0
  9
$SKPOLY
 70
     0
  9
$TDCREATE
 40
2456997.611452569
  9
$TDUCREATE
 40
2456997.569785903
  9
$TDUPDATE
 40
2456997.611452755
  9
$TDUUPDATE
 40
2456997.569786088
  9
$TDINDWG
 40
0.0000000116
  9
$TDUSRTIMER
 40
0.0000000116
  9
$USRTIMER
 70
     1
  9
$ANGBASE
 50
0.0
  9
$ANGDIR
 70
     0
  9
$PDMODE
 70
     0
  9
$PDSIZE
 40
0.0
  9
$PLINEWID
 40
0.0
  9
$SPLFRAME
 70
     0
  9
$SPLINETYPE
 70
     6
  9
$SPLINESEGS
 70
     8
  9
$HANDSEED
  5
5C0
  9
$SURFTAB1
 70
     6
  9
$SURFTAB2
 70
     6
  9
$SURFTYPE
 70
     6
  9
$SURFU
 70
     6
  9
$SURFV
 70
     6
  9
$UCSBASE
  2

  9
$UCSNAME
  2

  9
$UCSORG
 10
0.0
 20
0.0
 30
0.0
  9
$UCSXDIR
 10
1.0
 20
0.0
 30
0.0
  9
$UCSYDIR
 10
0.0
 20
1.0
 30
0.0
  9
$UCSORTHOREF
  2

  9
$UCSORTHOVIEW
 70
     0
  9
$UCSORGTOP
 10
0.0
 20
0.0
 30
0.0
  9
$UCSORGBOTTOM
 10
0.0
 20
0.0
 30
0.0
  9
$UCSORGLEFT
 10
0.0
 20
0.0
 30
0.0
  9
$UCSORGRIGHT
 10
0.0
 20
0.0
 30
0.0
  9
$UCSORGFRONT
 10
0.0
 20
0.0
 30
0.0
  9
$UCSORGBACK
 10
0.0
 20
0.0
 30
0.0
  9
$PUCSBASE
  2

  9
$PUCSNAME
  2

  9
$PUCSORG
 10
0.0
 20
0.0
 30
0.0
  9
$PUCSXDIR
 10
1.0
 20
0.0
 30
0.0
  9
$PUCSYDIR
 10
0.0
 20
1.0
 30
0.0
  9
$PUCSORTHOREF
  2

  9
$PUCSORTHOVIEW
 70
     0
  9
$PUCSORGTOP
 10
0.0
 20
0.0
 30
0.0
  9
$PUCSORGBOTTOM
 10
0.0
 20
0.0
 30
0.0
  9
$PUCSORGLEFT
 10
0.0
 20
0.0
 30
0.0
  9
$PUCSORGRIGHT
 10
0.0
 20
0.0
 30
0.0
  9
$PUCSORGFRONT
 10
0.0
 20
0.0
 30
0.0
  9
$PUCSORGBACK
 10
0.0
 20
0.0
 30
0.0
  9
$USERI1
 70
     0
  9
$USERI2
 70
     0
  9
$USERI3
 70
     0
  9
$USERI4
 70
     0
  9
$USERI5
 70
     0
  9
$USERR1
 40
18.1
  9
$USERR2
 40
0.0
  9
$USERR3
 40
0.0
  9
$USERR4
 40
0.0
  9
$USERR5
 40
0.0
  9
$WORLDVIEW
 70
     1
  9
$SHADEDGE
 70
     3
  9
$SHADEDIF
 70
    70
  9
$TILEMODE
 70
     1
  9
$MAXACTVP
 70
    64
  9
$PINSBASE
 10
0.0
 20
0.0
 30
0.0
  9
$PLIMCHECK
 70
     0
  9
$PEXTMIN
 10
1.00000000000000E+20
 20
1.00000000000000E+20
 30
1.00000000000000E+20
  9
$PEXTMAX
 10
-1.00000000000000E+20
 20
-1.00000000000000E+20
 30
-1.00000000000000E+20
  9
$PLIMMIN
 10
0.0
 20
0.0
  9
$PLIMMAX
 10
12.0
 20
9.0
  9
$UNITMODE
 70
     0
  9
$VISRETAIN
 70
     1
  9
$PLINEGEN
 70
     0
  9
$PSLTSCALE
 70
     1
  9
$TREEDEPTH
 70
  3020
  9
$CMLSTYLE
  2
Standard
  9
$CMLJUST
 70
     0
  9
$CMLSCALE
 40
1.0
  9
$PROXYGRAPHICS
 70
     1
  9
$MEASUREMENT
 70
     1
  9
$CELWEIGHT
370
    -1
  9
$ENDCAPS
280
     0
  9
$JOINSTYLE
280
     0
  9
$LWDISPLAY
290
     0
  9
$INSUNITS
 70
     4
  9
$HYPERLINKBASE
  1

  9
$STYLESHEET
  1

  9
$XEDIT
290
     1
  9
$CEPSNTYPE
380
     0
  9
$PSTYLEMODE
290
     1
  9
$FINGERPRINTGUID
  2
{735263C1-C059-4AD8-8673-D20D76B21D4A}
  9
$VERSIONGUID
  2
{FAEB1C32-E019-11D5-929B-00C0DF256EC4}
  9
$EXTNAMES
290
     1
  9
$PSVPSCALE
 40
0.0
  9
$OLESTARTUP
290
     0
  0
ENDSEC
  0
SECTION
  2
CLASSES
  0
CLASS
  1
ACDBDICTIONARYWDFLT
  2
AcDbDictionaryWithDefault
  3
ObjectDBX Classes
 90
        0
280
     0
281
     0
  0
CLASS
  1
VISUALSTYLE
  2
AcDbVisualStyle
  3
ObjectDBX Classes
 90
     4095
280
     0
281
     0
  0
CLASS
  1
MATERIAL
  2
AcDbMaterial
  3
ObjectDBX Classes
 90
     1153
280
     0
281
     0
  0
CLASS
  1
DICTIONARYVAR
  2
AcDbDictionaryVar
  3
ObjectDBX Classes
 90
        0
280
     0
281
     0
  0
CLASS
  1
ACDBPLACEHOLDER
  2
AcDbPlaceHolder
  3
ObjectDBX Classes
 90
        0
280
     0
281
     0
  0
CLASS
  1
LAYOUT
  2
AcDbLayout
  3
ObjectDBX Classes
 90
        0
280
     0
281
     0
  0
ENDSEC
  0
SECTION
  2
TABLES
  0
TABLE
  2
VPORT
  5
8
330
0
100
AcDbSymbolTable
 70
     1
  0
VPORT
  5
29
330
8
100
AcDbSymbolTableRecord
100
AcDbViewportTableRecord
  2
*Active
 70
     0
 10
0.0
 20
0.0
 11
1.0
 21
1.0
 12
148.5000000000001
 22
105.0000000000001
 13
0.0
 23
0.0
 14
0.5
 24
0.5
 15
0.5
 25
0.5
 16
0.0
 26
0.0
 36
1.0
 17
0.0
 27
0.0
 37
0.0
 40
231.0000000000001
 41
1.60267857142857
 42
50.0
 43
0.0
 44
0.0
 50
0.0
 51
0.0
 71
     0
 72
   100
 73
     1
 74
     3
 75
     0
 76
     0
 77
     0
 78
     0
281
     0
 65
     1
110
0.0
120
0.0
130
0.0
111
1.0
121
0.0
131
0.0
112
0.0
122
1.0
132
0.0
 79
     0
146
0.0
  0
ENDTAB
  0
TABLE
  2
LTYPE
  5
5
330
0
100
AcDbSymbolTable
 70
    10
  0
LTYPE
  5
14
330
5
100
AcDbSymbolTableRecord
100
AcDbLinetypeTableRecord
  2
ByBlock
 70
     0
  3

 72
    65
 73
     0
 40
0.0
  0
LTYPE
  5
15
330
5
100
AcDbSymbolTableRecord
100
AcDbLinetypeTableRecord
  2
ByLayer
 70
     0
  3

 72
    65
 73
     0
 40
0.0
  0
LTYPE
  5
16
330
5
100
AcDbSymbolTableRecord
100
AcDbLinetypeTableRecord
  2
Continuous
 70
     0
  3
Solid line
 72
    65
 73
     0
 40
0.0
  0
LTYPE
  5
3F
330
5
100
AcDbSymbolTableRecord
100
AcDbLinetypeTableRecord
  2
DASHED
 70
     0
  3
Dashed
 72
    65
 73
     2
 40
15.0
 49
7.0
 74
     0
 49
-8.0
 74
     0
  0
LTYPE
  5
40
330
5
100
AcDbSymbolTableRecord
100
AcDbLinetypeTableRecord
  2
DOTTED
 70
     0
  3
Dotted
 72
    65
 73
     2
 40
1.0
 49
0.0
 74
     0
 49
-1.0
 74
     0
  0
LTYPE
  5
41
330
5
100
AcDbSymbolTableRecord
100
AcDbLinetypeTableRecord
  2
DOT_CENTER
 70
     0
  3
Dot_Center
 72
    65
 73
     4
 40
14.0
 49
12.0
 74
     0
 49
-1.0
 74
     0
 49
0.0
 74
     0
 49
-1.0
 74
     0
  0
LTYPE
  5
42
330
5
100
AcDbSymbolTableRecord
100
AcDbLinetypeTableRecord
  2
LONG_DASHED
 70
     0
  3
Long_Dashed
 72
    65
 73
     2
 40
15.0
 49
10.0
 74
     0
 49
-5.0
 74
     0
  0
LTYPE
  5
43
330
5
100
AcDbSymbolTableRecord
100
AcDbLinetypeTableRecord
  2
DASH_CENTER
 70
     0
  3
Dash_Center
 72
    65
 73
     4
 40
14.0
 49
11.0
 74
     0
 49
-1.0
 74
     0
 49
1.0
 74
     0
 49
-1.0
 74
     0
  0
LTYPE
  5
44
330
5
100
AcDbSymbolTableRecord
100
AcDbLinetypeTableRecord
  2
PHANTOM
 70
     0
  3
Phantom
 72
    65
 73
     6
 40
13.0
 49
10.0
 74
     0
 49
-1.0
 74
     0
 49
0.0
 74
     0
 49
-1.0
 74
     0
 49
0.0
 74
     0
 49
-1.0
 74
     0
  0
LTYPE
  5
45
330
5
100
AcDbSymbolTableRecord
100
AcDbLinetypeTableRecord
  2
CENTER_DASH_DASH
 70
     0
  3
Center_Dash_Dash
 72
    65
 73
     6
 40
14.0
 49
9.0
 74
     0
 49
-1.0
 74
     0
 49
1.0
 74
     0
 49
-1.0
 74
     0
 49
1.0
 74
     0
 49
-1.0
 74
     0
  0
LTYPE
  5
46
330
5
100
AcDbSymbolTableRecord
100
AcDbLinetypeTableRecord
  2
CHAIN
 70
     0
  3
CHAIN
 72
    65
 73
     4
 40
4.0
 49
1.0
 74
     0
 49
-1.0
 74
     0
 49
1.0
 74
     0
 49
-1.0
 74
     0
  0
LTYPE
  5
47
330
5
100
AcDbSymbolTableRecord
100
AcDbLinetypeTableRecord
  2
DASHED_SPACE
 70
     0
  3
DASHED_SPACE
 72
    65
 73
     2
 40
2.0
 49
1.0
 74
     0
 49
-1.0
 74
     0
  0
ENDTAB
  0
TABLE
  2
LAYER
  5
2
330
0
100
AcDbSymbolTable
 70
     8
  0
LAYER
  5
10
330
2
100
AcDbSymbolTableRecord
100
AcDbLayerTableRecord
  2
0
 70
     0
 62
     7
  6
Continuous
370
    -3
390
F
  0
LAYER
  5
48
330
2
100
AcDbSymbolTableRecord
100
AcDbLayerTableRecord
  2
1
 70
     0
 62
     7
  6
Continuous
370
    -3
390
F
  0
LAYER
  5
49
330
2
100
AcDbSymbolTableRecord
100
AcDbLayerTableRecord
  2
Bemaßungen_TC_020513_DIN_
 70
     0
 62
     7
  6
Continuous
370
    -3
390
F
  0
LAYER
  5
4A
330
2
100
AcDbSymbolTableRecord
100
AcDbLayerTableRecord
  2
Mittellinie_TC_020513_DIN_
 70
     0
 62
     7
  6
Continuous
370
    -3
390
F
  0
LAYER
  5
4B
330
2
100
AcDbSymbolTableRecord
100
AcDbLayerTableRecord
  2
Mittelpunktmarkierung_TC_020513_DIN_
 70
     0
 62
     7
  6
Continuous
370
    -3
390
F
  0
LAYER
  5
4C
330
2
100
AcDbSymbolTableRecord
100
AcDbLayerTableRecord
  2
Sichtbare_Kanten_TC_020513_DIN_
 70
     0
 62
     7
  6
Continuous
370
    -3
390
F
  0
LAYER
  5
4D
330
2
100
AcDbSymbolTableRecord
100
AcDbLayerTableRecord
  2
Stich_1-Linien_TC_020513_DIN_
 70
     0
 62
     7
  6
Continuous
370
    -3
390
F
  0
LAYER
  5
4E
330
2
100
AcDbSymbolTableRecord
100
AcDbLayerTableRecord
  2
Symbole_TC_020513_DIN_
 70
     0
 62
     7
  6
Continuous
370
    -3
390
F
  0
ENDTAB
  0
TABLE
  2
STYLE
  5
3
330
0
100
AcDbSymbolTable
 70
     4
  0
STYLE
  5
11
330
3
100
AcDbSymbolTableRecord
100
AcDbTextStyleTableRecord
  2
Standard
 70
     0
 40
0.0
 41
1.0
 50
0.0
 71
     0
 42
0.2
  3
txt
  4

  0
STYLE
  5
A3
330
3
100
AcDbSymbolTableRecord
100
AcDbTextStyleTableRecord
  2
CONVERTER_11
 70
     0
 40
0.0
 41
1.2
 50
0.0
 71
     0
 42
0.2
  3
ARIAL.TTF
  4

  0
STYLE
  5
A8
330
3
100
AcDbSymbolTableRecord
100
AcDbTextStyleTableRecord
  2
CONVERTER_12
 70
     0
 40
0.0
 41
1.38
 50
0.0
 71
     0
 42
0.2
  3
ARIAL.TTF
  4

  0
STYLE
  5
52C
330
3
100
AcDbSymbolTableRecord
100
AcDbTextStyleTableRecord
  2
CONVERTER_13
 70
     0
 40
0.0
 41
0.75
 50
0.0
 71
     0
 42
0.2
  3
txt.shx
  4

  0
ENDTAB
  0
TABLE
  2
VIEW
  5
6
330
0
100
AcDbSymbolTable
 70
     0
  0
ENDTAB
  0
TABLE
  2
UCS
  5
7
330
0
100
AcDbSymbolTable
 70
     0
  0
ENDTAB
  0
TABLE
  2
APPID
  5
9
330
0
100
AcDbSymbolTable
 70
     1
  0
APPID
  5
12
330
9
100
AcDbSymbolTableRecord
100
AcDbRegAppTableRecord
  2
ACAD
 70
     0
  0
ENDTAB
  0
TABLE
  2
DIMSTYLE
  5
A
330
0
100
AcDbSymbolTable
 70
    11
100
AcDbDimStyleTable
  0
DIMSTYLE
105
27
330
A
100
AcDbSymbolTableRecord
100
AcDbDimStyleTableRecord
  2
Standard
 70
     0
178
     0
340
11
  0
DIMSTYLE
105
530
102
{ACAD_REACTORS
330
531
102
}
330
A
100
AcDbSymbolTableRecord
100
AcDbDimStyleTableRecord
  2
ME10_DIM_10
 70
     0
 41
2.5
 42
1.0
 44
2.0
 73
     0
 74
     0
 77
     1
 78
    12
140
3.5
147
0.8
172
     1
173
     1
174
     1
175
     1
176
     7
177
     7
271
     2
178
     7
271
     2
340
52C
  0
DIMSTYLE
105
53B
102
{ACAD_REACTORS
330
53C
102
}
330
A
100
AcDbSymbolTableRecord
100
AcDbDimStyleTableRecord
  2
ME10_DIM_11
 70
     0
 41
2.5
 42
1.0
 44
2.0
 73
     0
 74
     0
 77
     1
 78
    12
140
3.5
147
0.8
172
     1
173
     1
174
     1
175
     1
176
     7
177
     7
271
     2
178
     7
271
     2
340
52C
  0
DIMSTYLE
105
546
102
{ACAD_REACTORS
330
547
102
}
330
A
100
AcDbSymbolTableRecord
100
AcDbDimStyleTableRecord
  2
ME10_DIM_12
 70
     0
 41
2.5
 42
1.0
 44
2.0
 73
     0
 74
     0
 77
     1
 78
    12
140
3.5
147
0.8
172
     1
173
     1
174
     1
175
     1
176
     7
177
     7
271
     0
178
     7
271
     0
340
52C
  0
DIMSTYLE
105
551
102
{ACAD_REACTORS
330
552
102
}
330
A
100
AcDbSymbolTableRecord
100
AcDbDimStyleTableRecord
  2
ME10_DIM_13
 70
     0
 41
2.5
 42
1.0
 44
2.0
 73
     0
 74
     0
 77
     1
 78
    12
140
3.5
147
0.8
172
     1
173
     1
174
     1
175
     1
176
     7
177
     7
271
     2
178
     7
271
     2
340
52C
  0
DIMSTYLE
105
55C
102
{ACAD_REACTORS
330
55D
102
}
330
A
100
AcDbSymbolTableRecord
100
AcDbDimStyleTableRecord
  2
ME10_DIM_14
 70
     0
 41
2.5
 42
1.0
 44
2.0
 73
     0
 74
     0
 77
     1
 78
    12
140
3.5
147
0.8
172
     1
173
     1
174
     1
175
     1
176
     7
177
     7
271
     2
178
     7
271
     2
340
52C
  0
DIMSTYLE
105
567
102
{ACAD_REACTORS
330
568
102
}
330
A
100
AcDbSymbolTableRecord
100
AcDbDimStyleTableRecord
  2
ME10_DIM_15
 70
     0
 41
2.5
 42
1.0
 44
2.0
 73
     0
 74
     0
 77
     1
 78
    12
140
3.5
147
0.8
172
     1
173
     1
174
     1
175
     1
176
     7
177
     7
271
     2
178
     7
271
     2
340
52C
  0
DIMSTYLE
105
572
102
{ACAD_REACTORS
330
573
102
}
330
A
100
AcDbSymbolTableRecord
100
AcDbDimStyleTableRecord
  2
ME10_DIM_16
 70
     0
 41
2.5
 42
1.0
 44
2.0
 73
     0
 74
     0
 77
     1
 78
    12
140
3.5
147
0.8
172
     1
173
     1
174
     1
175
     1
176
     7
177
     7
271
     2
178
     7
271
     2
340
52C
  0
DIMSTYLE
105
57D
102
{ACAD_REACTORS
330
57E
102
}
330
A
100
AcDbSymbolTableRecord
100
AcDbDimStyleTableRecord
  2
ME10_DIM_17
 70
     0
 41
2.5
 42
1.0
 44
2.0
 73
     0
 74
     0
 77
     1
 78
    12
140
3.5
147
0.8
172
     1
173
     1
174
     1
175
     1
176
     7
177
     7
271
     2
178
     7
271
     2
340
52C
  0
DIMSTYLE
105
588
102
{ACAD_REACTORS
330
589
102
}
330
A
100
AcDbSymbolTableRecord
100
AcDbDimStyleTableRecord
  2
ME10_DIM_18
 70
     0
 41
2.5
 42
1.0
 44
2.0
 73
     0
 74
     0
 77
     1
 78
    12
140
3.5
147
0.8
172
     1
173
     1
174
     1
175
     1
176
     7
177
     7
271
     2
178
     7
271
     2
340
52C
  0
DIMSTYLE
105
593
102
{ACAD_REACTORS
330
594
102
}
330
A
100
AcDbSymbolTableRecord
100
AcDbDimStyleTableRecord
  2
ME10_DIM_19
 70
     0
 41
2.5
 42
1.0
 44
2.0
 73
     0
 74
     0
 77
     1
 78
    12
140
3.5
147
0.8
172
     1
173
     1
174
     1
175
     1
176
     7
177
     7
271
     2
178
     7
271
     2
340
52C
  0
ENDTAB
  0
TABLE
  2
BLOCK_RECORD
  5
1
330
0
100
AcDbSymbolTable
 70
    13
  0
BLOCK_RECORD
  5
1F
330
1
100
AcDbSymbolTableRecord
100
AcDbBlockTableRecord
  2
*Model_Space
340
22
  0
BLOCK_RECORD
  5
1B
330
1
100
AcDbSymbolTableRecord
100
AcDbBlockTableRecord
  2
*Paper_Space
340
1E
  0
BLOCK_RECORD
  5
23
330
1
100
AcDbSymbolTableRecord
100
AcDbBlockTableRecord
  2
*Paper_Space0
340
26
  0
BLOCK_RECORD
  5
4F
330
1
100
AcDbSymbolTableRecord
100
AcDbBlockTableRecord
  2
_formato_A4
340
0
102
{BLKREFS
331
53
102
}
  0
BLOCK_RECORD
  5
52
330
1
100
AcDbSymbolTableRecord
100
AcDbBlockTableRecord
  2
A4_oriz
340
0
102
{BLKREFS
331
56
102
}
  0
BLOCK_RECORD
  5
526
330
1
100
AcDbSymbolTableRecord
100
AcDbBlockTableRecord
  2
*D3
340
0
  0
BLOCK_RECORD
  5
532
330
1
100
AcDbSymbolTableRecord
100
AcDbBlockTableRecord
  2
*D4
340
0
  0
BLOCK_RECORD
  5
53D
330
1
100
AcDbSymbolTableRecord
100
AcDbBlockTableRecord
  2
*D5
340
0
  0
BLOCK_RECORD
  5
548
330
1
100
AcDbSymbolTableRecord
100
AcDbBlockTableRecord
  2
*D6
340
0
  0
BLOCK_RECORD
  5
553
330
1
100
AcDbSymbolTableRecord
100
AcDbBlockTableRecord
  2
*D7
340
0
  0
BLOCK_RECORD
  5
55E
330
1
100
AcDbSymbolTableRecord
100
AcDbBlockTableRecord
  2
*D8
340
0
  0
BLOCK_RECORD
  5
569
330
1
100
AcDbSymbolTableRecord
100
AcDbBlockTableRecord
  2
*D9
340
0
  0
BLOCK_RECORD
  5
574
330
1
100
AcDbSymbolTableRecord
100
AcDbBlockTableRecord
  2
*D10
340
0
  0
BLOCK_RECORD
  5
57F
330
1
100
AcDbSymbolTableRecord
100
AcDbBlockTableRecord
  2
*D11
340
0
  0
BLOCK_RECORD
  5
58A
330
1
100
AcDbSymbolTableRecord
100
AcDbBlockTableRecord
  2
*D12
340
0
  0
ENDTAB
  0
ENDSEC
  0
SECTION
  2
BLOCKS
  0
BLOCK
  5
20
330
1F
100
AcDbEntity
  8
0
100
AcDbBlockBegin
  2
*Model_Space
 70
     0
 10
0.0
 20
0.0
 30
0.0
  3
*Model_Space
  1

  0
ENDBLK
  5
21
330
1F
100
AcDbEntity
  8
0
100
AcDbBlockEnd
  0
BLOCK
  5
1C
330
1B
100
AcDbEntity
 67
     1
  8
0
100
AcDbBlockBegin
  2
*Paper_Space
 70
     0
 10
0.0
 20
0.0
 30
0.0
  3
*Paper_Space
  1

  0
ENDBLK
  5
1D
330
1B
100
AcDbEntity
 67
     1
  8
0
100
AcDbBlockEnd
  0
BLOCK
  5
24
330
23
100
AcDbEntity
  8
0
100
AcDbBlockBegin
  2
*Paper_Space0
 70
     0
 10
0.0
 20
0.0
 30
0.0
  3
*Paper_Space0
  1

  0
ENDBLK
  5
25
330
23
100
AcDbEntity
  8
0
100
AcDbBlockEnd
  0
BLOCK
  5
50
330
4F
100
AcDbEntity
  8
0
100
AcDbBlockBegin
  2
_formato_A4
 70
     0
 10
297.0000000000001
 20
0.0
 30
0.0
  3
_formato_A4
  1

  0
LINE
  5
57
330
4F
100
AcDbEntity
  8
1
  6
Continuous
 62
     7
100
AcDbLine
 10
108.0
 20
9.99999999999986
 30
0.0
 11
138.0
 21
9.99999999999986
 31
0.0
  0
LINE
  5
58
330
4F
100
AcDbEntity
  8
1
  6
Continuous
 62
     7
100
AcDbLine
 10
108.0
 20
14.99999999999989
 30
0.0
 11
138.0
 21
14.99999999999989
 31
0.0
  0
LINE
  5
59
330
4F
100
AcDbEntity
  8
1
  6
Continuous
 62
     7
100
AcDbLine
 10
248.0000000000001
 20
19.99999999999999
 30
0.0
 11
248.0000000000001
 21
5.0
 31
0.0
  0
LINE
  5
5A
330
4F
100
AcDbEntity
  8
1
  6
Continuous
 62
     7
100
AcDbLine
 10
265.3526013774854
 20
19.99999999999999
 30
0.0
 11
265.3526013774854
 21
5.0
 31
0.0
  0
LINE
  5
5B
330
4F
100
AcDbEntity
  8
1
  6
Continuous
 62
     7
100
AcDbLine
 10
138.0
 20
19.99999999999999
 30
0.0
 11
138.0
 21
5.0
 31
0.0
  0
LINE
  5
5C
330
4F
100
AcDbEntity
  8
1
  6
Continuous
 62
     7
100
AcDbLine
 10
148.4999999999996
 20
210.0000000000001
 30
0.0
 11
148.4999999999996
 21
195.0000000000001
 31
0.0
  0
LINE
  5
5D
330
4F
100
AcDbEntity
  8
1
  6
Continuous
 62
     7
100
AcDbLine
 10
0.0
 20
0.0
 30
0.0
 11
297.0000000000001
 21
0.0
 31
0.0
  0
LINE
  5
5E
330
4F
100
AcDbEntity
  8
1
  6
Continuous
 62
     7
100
AcDbLine
 10
0.0
 20
210.0000000000001
 30
0.0
 11
0.0
 21
0.0
 31
0.0
  0
LINE
  5
5F
330
4F
100
AcDbEntity
  8
1
  6
Continuous
 62
     7
100
AcDbLine
 10
297.0000000000001
 20
210.0000000000001
 30
0.0
 11
0.0
 21
210.0000000000001
 31
0.0
  0
LINE
  5
60
330
4F
100
AcDbEntity
  8
1
  6
Continuous
 62
     7
100
AcDbLine
 10
297.0000000000001
 20
0.0
 30
0.0
 11
297.0000000000001
 21
210.0000000000001
 31
0.0
  0
LINE
  5
61
330
4F
100
AcDbEntity
  8
1
  6
Continuous
 62
     7
100
AcDbLine
 10
4.99999999999977
 20
5.0
 30
0.0
 11
292.0000000000001
 21
5.0
 31
0.0
  0
LINE
  5
62
330
4F
100
AcDbEntity
  8
1
  6
Continuous
 62
     7
100
AcDbLine
 10
292.0000000000001
 20
5.0
 30
0.0
 11
292.0000000000001
 21
188.9999999999999
 31
0.0
  0
LINE
  5
63
330
4F
100
AcDbEntity
  8
1
  6
Continuous
 62
     7
100
AcDbLine
 10
292.0000000000001
 20
188.9999999999999
 30
0.0
 11
4.99999999999977
 21
188.9999999999999
 31
0.0
  0
LINE
  5
64
102
{ACAD_REACTORS
330
B1
102
}
330
4F
100
AcDbEntity
  8
1
  6
Continuous
 62
     7
100
AcDbLine
 10
281.0096340220761
 20
10.07749983983263
 30
0.0
 11
281.0096340220761
 21
14.92250016016737
 31
0.0
  0
LINE
  5
65
102
{ACAD_REACTORS
330
AE
102
}
330
4F
100
AcDbEntity
  8
1
  6
Continuous
 62
     7
100
AcDbLine
 10
279.6763006887427
 20
12.49999999999999
 30
0.0
 11
279.6763006887427
 21
14.23205080756883
 31
0.0
  0
LINE
  5
66
102
{ACAD_REACTORS
330
AE
102
}
330
4F
100
AcDbEntity
  8
1
  6
Continuous
 62
     7
100
AcDbLine
 10
279.6763006887427
 20
14.23205080756883
 30
0.0
 11
278.8206382560401
 21
12.74999999999999
 31
0.0
  0
LINE
  5
67
102
{ACAD_REACTORS
330
AE
102
}
330
4F
100
AcDbEntity
  8
1
  6
Continuous
 62
     7
100
AcDbLine
 10
278.5319631214452
 20
12.74999999999999
 30
0.0
 11
277.6763006887427
 21
14.23205080756883
 31
0.0
  0
LINE
  5
68
102
{ACAD_REACTORS
330
AE
102
}
330
4F
100
AcDbEntity
  8
1
  6
Continuous
 62
     7
100
AcDbLine
 10
277.6763006887427
 20
14.23205080756883
 30
0.0
 11
277.6763006887427
 21
12.49999999999999
 31
0.0
  0
LINE
  5
69
330
4F
100
AcDbEntity
  8
1
  6
Continuous
 62
     7
100
AcDbLine
 10
270.2598654136012
 20
12.64436426434133
 30
0.0
 11
278.6763006887427
 21
17.49999999999999
 31
0.0
  0
LINE
  5
6A
330
4F
100
AcDbEntity
  8
1
  6
Continuous
 62
     7
100
AcDbLine
 10
278.6763006887427
 20
17.49999999999999
 30
0.0
 11
287.0927359638842
 21
12.64436426434133
 31
0.0
  0
LINE
  5
6B
330
4F
100
AcDbEntity
  8
1
  6
Continuous
 62
     7
100
AcDbLine
 10
287.0927359638842
 20
12.35563573565856
 30
0.0
 11
278.6763006887427
 21
7.49999999999999
 31
0.0
  0
LINE
  5
6C
330
4F
100
AcDbEntity
  8
1
  6
Continuous
 62
     7
100
AcDbLine
 10
278.6763006887427
 20
7.49999999999999
 30
0.0
 11
270.2598654136012
 21
12.35563573565856
 31
0.0
  0
LINE
  5
6D
102
{ACAD_REACTORS
330
AE
102
}
330
4F
100
AcDbEntity
  8
1
  6
Continuous
 62
     7
100
AcDbLine
 10
277.009634022076
 20
12.49999999999999
 30
0.0
 11
277.009634022076
 21
15.73121731203458
 31
0.0
  0
LINE
  5
6E
102
{ACAD_REACTORS
330
AE
102
}
330
4F
100
AcDbEntity
  8
1
  6
Continuous
 62
     7
100
AcDbLine
 10
277.5040677056995
 20
15.86370041827228
 30
0.0
 11
278.6763006887427
 21
13.83333333333326
 31
0.0
  0
LINE
  5
6F
102
{ACAD_REACTORS
330
AE
102
}
330
4F
100
AcDbEntity
  8
1
  6
Continuous
 62
     7
100
AcDbLine
 10
277.009634022076
 20
12.49999999999999
 30
0.0
 11
277.009634022076
 21
10.84758507263291
 31
0.0
  0
LINE
  5
70
102
{ACAD_REACTORS
330
AE
102
}
330
4F
100
AcDbEntity
  8
1
  6
Continuous
 62
     7
100
AcDbLine
 10
277.6763006887427
 20
10.84758507263291
 30
0.0
 11
277.6763006887427
 21
12.49999999999999
 31
0.0
  0
LINE
  5
71
102
{ACAD_REACTORS
330
AE
102
}
330
4F
100
AcDbEntity
  8
1
  6
Continuous
 62
     7
100
AcDbLine
 10
279.6763006887427
 20
12.49999999999999
 30
0.0
 11
279.6763006887427
 21
9.30826907060179
 31
0.0
  0
LINE
  5
72
102
{ACAD_REACTORS
330
AE
102
}
330
4F
100
AcDbEntity
  8
1
  6
Continuous
 62
     7
100
AcDbLine
 10
280.3429673554094
 20
9.30826907060179
 30
0.0
 11
280.3429673554094
 21
15.73121731203458
 31
0.0
  0
LINE
  5
73
102
{ACAD_REACTORS
330
AE
102
}
330
4F
100
AcDbEntity
  8
1
  6
Continuous
 62
     7
100
AcDbLine
 10
279.848533671786
 20
15.86370041827228
 30
0.0
 11
278.6763006887427
 21
13.83333333333326
 31
0.0
  0
LINE
  5
74
102
{ACAD_REACTORS
330
AF
102
}
330
4F
100
AcDbEntity
  8
1
  6
Continuous
 62
     7
100
AcDbLine
 10
275.6763006887427
 20
10.27002114803258
 30
0.0
 11
275.6763006887427
 21
14.92250016016737
 31
0.0
  0
LINE
  5
75
102
{ACAD_REACTORS
330
AF
102
}
330
4F
100
AcDbEntity
  8
1
  6
Continuous
 62
     7
100
AcDbLine
 10
276.3429673554094
 20
14.92250016016737
 30
0.0
 11
276.3429673554094
 21
10.2700211480327
 31
0.0
  0
LINE
  5
76
102
{ACAD_REACTORS
330
AF
102
}
330
4F
100
AcDbEntity
  8
1
  6
Continuous
 62
     7
100
AcDbLine
 10
276.3429673554094
 20
10.2700211480327
 30
0.0
 11
278.5095415065726
 21
9.0200745223616
 31
0.0
  0
LINE
  5
77
102
{ACAD_REACTORS
330
AF
102
}
330
4F
100
AcDbEntity
  8
1
  6
Continuous
 62
     7
100
AcDbLine
 10
278.1763932042462
 20
8.4426174649958
 30
0.0
 11
276.0098190530831
 21
9.6925640906669
 31
0.0
  0
LINE
  5
78
102
{ACAD_REACTORS
330
B0
102
}
330
4F
100
AcDbEntity
  8
1
  6
Continuous
 62
     7
100
AcDbLine
 10
275.009634022076
 20
14.15326939093666
 30
0.0
 11
275.009634022076
 21
11.03925191726329
 31
0.0
  0
LINE
  5
79
102
{ACAD_REACTORS
330
B0
102
}
330
4F
100
AcDbEntity
  8
1
  6
Continuous
 62
     7
100
AcDbLine
 10
275.009634022076
 20
11.03925191726329
 30
0.0
 11
275.009634022076
 21
10.84673060906323
 31
0.0
  0
LINE
  5
7A
102
{ACAD_REACTORS
330
B0
102
}
330
4F
100
AcDbEntity
  8
1
  6
Continuous
 62
     7
100
AcDbLine
 10
274.3429673554094
 20
10.84673060906323
 30
0.0
 11
274.3429673554094
 21
14.15326939093666
 31
0.0
  0
LINE
  5
7B
102
{ACAD_REACTORS
330
B1
102
}
330
4F
100
AcDbEntity
  8
1
  6
Continuous
 62
     7
100
AcDbLine
 10
281.5095415065726
 20
15.21122868885026
 30
0.0
 11
282.8428748399059
 21
14.44199791961944
 31
0.0
  0
LINE
  5
7C
102
{ACAD_REACTORS
330
B1
102
}
330
4F
100
AcDbEntity
  8
1
  6
Continuous
 62
     7
100
AcDbLine
 10
282.5097265375795
 20
13.86454086225375
 30
0.0
 11
281.6763006887427
 21
14.34536346735195
 31
0.0
  0
LINE
  5
7D
102
{ACAD_REACTORS
330
B1
102
}
330
4F
100
AcDbEntity
  8
1
  6
Continuous
 62
     7
100
AcDbLine
 10
281.6763006887427
 20
14.34536346735195
 30
0.0
 11
281.6763006887427
 21
12.83333333333326
 31
0.0
  0
LINE
  5
7E
102
{ACAD_REACTORS
330
B1
102
}
330
4F
100
AcDbEntity
  8
1
  6
Continuous
 62
     7
100
AcDbLine
 10
281.6763006887427
 20
12.83333333333326
 30
0.0
 11
282.6763006887427
 21
12.83333333333326
 31
0.0
  0
LINE
  5
7F
102
{ACAD_REACTORS
330
B1
102
}
330
4F
100
AcDbEntity
  8
1
  6
Continuous
 62
     7
100
AcDbLine
 10
282.6763006887427
 20
12.16666666666663
 30
0.0
 11
281.6763006887427
 21
12.16666666666663
 31
0.0
  0
LINE
  5
80
102
{ACAD_REACTORS
330
B1
102
}
330
4F
100
AcDbEntity
  8
1
  6
Continuous
 62
     7
100
AcDbLine
 10
281.6763006887427
 20
12.16666666666663
 30
0.0
 11
281.6763006887427
 21
10.65463653264794
 31
0.0
  0
LINE
  5
81
102
{ACAD_REACTORS
330
B1
102
}
330
4F
100
AcDbEntity
  8
1
  6
Continuous
 62
     7
100
AcDbLine
 10
281.6763006887427
 20
10.65463653264794
 30
0.0
 11
282.5097265375795
 21
11.13545913774624
 31
0.0
  0
LINE
  5
82
102
{ACAD_REACTORS
330
B1
102
}
330
4F
100
AcDbEntity
  8
1
  6
Continuous
 62
     7
100
AcDbLine
 10
282.8428748399059
 20
10.55800208038033
 30
0.0
 11
281.5095415065726
 21
9.78877131114972
 31
0.0
  0
LINE
  5
83
330
4F
100
AcDbEntity
  8
1
  6
Continuous
 62
     7
100
AcDbLine
 10
108.0
 20
24.99999999999999
 30
0.0
 11
292.0000000000001
 21
24.99999999999999
 31
0.0
  0
LINE
  5
84
330
4F
100
AcDbEntity
  8
1
  6
Continuous
 62
     7
100
AcDbLine
 10
115.0
 20
19.99999999999999
 30
0.0
 11
115.0
 21
24.99999999999999
 31
0.0
  0
LINE
  5
85
330
4F
100
AcDbEntity
  8
1
  6
Continuous
 62
     7
100
AcDbLine
 10
133.0000000000001
 20
19.99999999999999
 30
0.0
 11
133.0000000000001
 21
24.99999999999999
 31
0.0
  0
LINE
  5
86
330
4F
100
AcDbEntity
  8
1
  6
Continuous
 62
     7
100
AcDbLine
 10
108.0
 20
29.99999999999999
 30
0.0
 11
292.0000000000001
 21
29.99999999999999
 31
0.0
  0
LINE
  5
87
330
4F
100
AcDbEntity
  8
1
  6
Continuous
 62
     7
100
AcDbLine
 10
115.0
 20
24.99999999999999
 30
0.0
 11
115.0
 21
29.99999999999999
 31
0.0
  0
LINE
  5
88
330
4F
100
AcDbEntity
  8
1
  6
Continuous
 62
     7
100
AcDbLine
 10
133.0000000000001
 20
24.99999999999999
 30
0.0
 11
133.0000000000001
 21
29.99999999999999
 31
0.0
  0
LINE
  5
89
330
4F
100
AcDbEntity
  8
1
  6
Continuous
 62
     7
100
AcDbLine
 10
108.0
 20
34.99999999999999
 30
0.0
 11
292.0000000000001
 21
34.99999999999999
 31
0.0
  0
LINE
  5
8A
330
4F
100
AcDbEntity
  8
1
  6
Continuous
 62
     7
100
AcDbLine
 10
115.0
 20
29.99999999999999
 30
0.0
 11
115.0
 21
34.99999999999999
 31
0.0
  0
LINE
  5
8B
330
4F
100
AcDbEntity
  8
1
  6
Continuous
 62
     7
100
AcDbLine
 10
133.0000000000001
 20
29.99999999999999
 30
0.0
 11
133.0000000000001
 21
34.99999999999999
 31
0.0
  0
LINE
  5
8C
330
4F
100
AcDbEntity
  8
1
  6
Continuous
 62
     7
100
AcDbLine
 10
108.0
 20
39.99999999999999
 30
0.0
 11
292.0000000000001
 21
39.99999999999999
 31
0.0
  0
LINE
  5
8D
330
4F
100
AcDbEntity
  8
1
  6
Continuous
 62
     7
100
AcDbLine
 10
115.0
 20
34.99999999999999
 30
0.0
 11
115.0
 21
39.99999999999999
 31
0.0
  0
LINE
  5
8E
330
4F
100
AcDbEntity
  8
1
  6
Continuous
 62
     7
100
AcDbLine
 10
133.0000000000001
 20
34.99999999999999
 30
0.0
 11
133.0000000000001
 21
39.99999999999999
 31
0.0
  0
LINE
  5
8F
330
4F
100
AcDbEntity
  8
1
  6
Continuous
 62
     7
100
AcDbLine
 10
4.99999999999977
 20
188.9999999999999
 30
0.0
 11
4.99999999999977
 21
5.0
 31
0.0
  0
LINE
  5
90
330
4F
100
AcDbEntity
  8
1
  6
Continuous
 62
     7
100
AcDbLine
 10
108.0
 20
19.99999999999999
 30
0.0
 11
292.0000000000001
 21
19.99999999999999
 31
0.0
  0
LINE
  5
91
330
4F
100
AcDbEntity
  8
1
  6
Continuous
 62
     7
100
AcDbLine
 10
108.0
 20
4.99999999999988
 30
0.0
 11
108.0
 21
39.99999999999999
 31
0.0
  0
ARC
  5
92
102
{ACAD_REACTORS
330
AE
102
}
330
4F
100
AcDbEntity
  8
1
  6
Continuous
 62
     7
100
AcDbCircle
 10
277.2746002345513
 20
15.73121731203458
 30
0.0
 40
0.2649662124753741
100
AcDbArc
 50
30.00000000000326
 51
180.0
  0
ARC
  5
93
102
{ACAD_REACTORS
330
AE
102
}
330
4F
100
AcDbEntity
  8
1
  6
Continuous
 62
     7
100
AcDbCircle
 10
277.3429673554094
 20
10.84758507263291
 30
0.0
 40
0.3333333333334281
100
AcDbArc
 50
180.0
 51
0.0
  0
ARC
  5
94
102
{ACAD_REACTORS
330
AE
102
}
330
4F
100
AcDbEntity
  8
1
  6
Continuous
 62
     7
100
AcDbCircle
 10
280.0096340220761
 20
9.30826907060179
 30
0.0
 40
0.3333333333334281
100
AcDbArc
 50
180.0
 51
0.0
  0
ARC
  5
95
102
{ACAD_REACTORS
330
AE
102
}
330
4F
100
AcDbEntity
  8
1
  6
Continuous
 62
     7
100
AcDbCircle
 10
280.0780011429341
 20
15.73121731203458
 30
0.0
 40
0.2649662124753149
100
AcDbArc
 50
0.0
 51
149.9999999999845
  0
ARC
  5
96
102
{ACAD_REACTORS
330
AF
102
}
330
4F
100
AcDbEntity
  8
1
  6
Continuous
 62
     7
100
AcDbCircle
 10
276.009634022076
 20
14.92250016016737
 30
0.0
 40
0.3333333333334281
100
AcDbArc
 50
0.0
 51
180.0
  0
ARC
  5
97
102
{ACAD_REACTORS
330
AF
102
}
330
4F
100
AcDbEntity
  8
1
  6
Continuous
 62
     7
100
AcDbCircle
 10
278.3429673554094
 20
8.73134599367869
 30
0.0
 40
0.3333333333333709
100
AcDbArc
 50
240.0183606311493
 51
60.01836063115844
  0
ARC
  5
98
102
{ACAD_REACTORS
330
B0
102
}
330
4F
100
AcDbEntity
  8
1
  6
Continuous
 62
     7
100
AcDbCircle
 10
274.6763006887427
 20
14.15326939093666
 30
0.0
 40
0.3333333333333144
100
AcDbArc
 50
0.0
 51
180.0
  0
ARC
  5
99
102
{ACAD_REACTORS
330
B0
102
}
330
4F
100
AcDbEntity
  8
1
  6
Continuous
 62
     7
100
AcDbCircle
 10
274.6763006887427
 20
10.84673060906323
 30
0.0
 40
0.3333333333332575
100
AcDbArc
 50
180.0
 51
0.0
  0
ARC
  5
9A
102
{ACAD_REACTORS
330
B1
102
}
330
4F
100
AcDbEntity
  8
1
  6
Continuous
 62
     7
100
AcDbCircle
 10
282.6763006887427
 20
14.15326939093666
 30
0.0
 40
0.3333333333333564
100
AcDbArc
 50
240.0183606311592
 51
60.01836063113944
  0
ARC
  5
9B
102
{ACAD_REACTORS
330
B1
102
}
330
4F
100
AcDbEntity
  8
1
  6
Continuous
 62
     7
100
AcDbCircle
 10
282.6763006887427
 20
12.49999999999999
 30
0.0
 40
0.3333333333333588
100
AcDbArc
 50
270.0
 51
90.0
  0
ARC
  5
9C
102
{ACAD_REACTORS
330
B1
102
}
330
4F
100
AcDbEntity
  8
1
  6
Continuous
 62
     7
100
AcDbCircle
 10
282.6763006887427
 20
10.84673060906323
 30
0.0
 40
0.333333333333374
100
AcDbArc
 50
299.9816393688503
 51
119.9816393688323
  0
ARC
  5
9D
102
{ACAD_REACTORS
330
AE
102
}
330
4F
100
AcDbEntity
  8
1
  6
Continuous
 62
     7
100
AcDbCircle
 10
278.6763006887427
 20
12.83333333333326
 30
0.0
 40
0.1666666666667143
100
AcDbArc
 50
209.9999999999654
 51
330.0000000000248
  0
ARC
  5
9E
102
{ACAD_REACTORS
330
AF
102
}
330
4F
100
AcDbEntity
  8
1
  6
Continuous
 62
     7
100
AcDbCircle
 10
276.3429673554094
 20
10.2700211480327
 30
0.0
 40
0.6666666666667425
100
AcDbArc
 50
180.0000000000104
 51
240.0183606311583
  0
ARC
  5
9F
330
4F
100
AcDbEntity
  8
1
  6
Continuous
 62
     7
100
AcDbCircle
 10
270.3431524891828
 20
12.49999999999999
 30
0.0
 40
0.1666666666665931
100
AcDbArc
 50
119.981639368869
 51
240.0183606311463
  0
ARC
  5
A0
330
4F
100
AcDbEntity
  8
1
  6
Continuous
 62
     7
100
AcDbCircle
 10
287.0094488883026
 20
12.49999999999999
 30
0.0
 40
0.16666666666667
100
AcDbArc
 50
299.9816393688537
 51
60.01836063113105
  0
ARC
  5
A1
102
{ACAD_REACTORS
330
B1
102
}
330
4F
100
AcDbEntity
  8
1
  6
Continuous
 62
     7
100
AcDbCircle
 10
281.3429673554094
 20
14.92250016016737
 30
0.0
 40
0.3333333333333379
100
AcDbArc
 50
60.01836063115737
 51
180.0
  0
ARC
  5
A2
102
{ACAD_REACTORS
330
B1
102
}
330
4F
100
AcDbEntity
  8
1
  6
Continuous
 62
     7
100
AcDbCircle
 10
281.3429673554094
 20
10.07749983983263
 30
0.0
 40
0.3333333333333144
100
AcDbArc
 50
180.0
 51
299.9816393688412
  0
MTEXT
  5
A4
330
4F
100
AcDbEntity
  8
1
 62
     7
100
AcDbMText
 10
119.6
 20
7.49999999999986
 30
0.0
 40
3.0
 41
0.0
 71
     4
 72
     1
  1
Radice
  7
CONVERTER_11
 73
     1
 44
1.32052821128451
  0
MTEXT
  5
A5
330
4F
100
AcDbEntity
  8
1
 62
     7
100
AcDbMText
 10
109.0
 20
7.49999999999986
 30
0.0
 40
3.0
 41
0.0
 71
     4
 72
     1
  1
Sign.
  7
CONVERTER_11
 73
     1
 44
1.32052821128451
  0
MTEXT
  5
A6
330
4F
100
AcDbEntity
  8
1
 62
     7
100
AcDbMText
 10
119.6
 20
12.49999999999988
 30
0.0
 40
3.0
 41
0.0
 71
     4
 72
     1
  1
19/06/14
  7
CONVERTER_11
 73
     1
 44
1.32052821128451
  0
MTEXT
  5
A7
330
4F
100
AcDbEntity
  8
1
 62
     7
100
AcDbMText
 10
109.0
 20
12.49999999999988
 30
0.0
 40
3.0
 41
0.0
 71
     4
 72
     1
  1
Date
  7
CONVERTER_11
 73
     1
 44
1.32052821128451
  0
MTEXT
  5
A9
330
4F
100
AcDbEntity
  8
1
 62
     7
100
AcDbMText
 10
123.0
 20
17.49999999999995
 30
0.0
 40
2.5
 41
0.0
 71
     5
 72
     1
  1
dimensions in mm
  7
CONVERTER_12
 73
     1
 44
0.60024009603842
  0
MTEXT
  5
AA
330
4F
100
AcDbEntity
  8
1
 62
     7
100
AcDbMText
 10
151.4999999999996
 20
194.0000000000001
 30
0.0
 40
4.0
 41
0.0
 71
     5
 72
     1
  1
Diritti riservati      All rights reserved
  7
CONVERTER_11
 73
     1
 44
1.32052821128451
  0
MTEXT
  5
AB
330
4F
100
AcDbEntity
  8
1
 62
     7
100
AcDbMText
 10
144.2763006887427
 20
12.49999999999999
 30
0.0
 40
4.5
 41
0.0
 71
     4
 72
     1
  1
JCVP 24 L\PSurface mounting housing, 1 lever, PG21 - JEI
  7
CONVERTER_11
 73
     1
 44
0.90036014405762
  0
MTEXT
  5
AC
330
4F
100
AcDbEntity
  8
1
 62
     7
100
AcDbMText
 10
256.6763006887427
 20
16.26063942075597
 30
0.0
 40
3.0
 41
0.0
 71
     5
 72
     1
  1
Scale
  7
CONVERTER_11
 73
     1
 44
1.32052821128451
  0
MTEXT
  5
AD
330
4F
100
AcDbEntity
  8
1
 62
     7
100
AcDbMText
 10
256.6763006887427
 20
10.06063942075605
 30
0.0
 40
4.5
 41
0.0
 71
     5
 72
     1
  1
1:1
  7
CONVERTER_11
 73
     1
 44
1.32052821128451
  0
HATCH
  5
AE
330
4F
100
AcDbEntity
  8
1
  6
Continuous
 62
     7
100
AcDbHatch
 10
0.0
 20
0.0
 30
0.0
210
0.0
220
0.0
230
1.0
  2
SOLID
 70
     1
 71
     1
 91
        1
 92
        1
 93
       16
 72
     2
 10
277.2746002345513
 20
15.73121731203458
 40
0.2649662124753741
 50
30.00000000000326
 51
180.0
 73
     1
 72
     1
 10
277.009634022076
 20
15.73121731203458
 11
277.009634022076
 21
12.49999999999999
 72
     1
 10
277.009634022076
 20
12.49999999999999
 11
277.009634022076
 21
10.84758507263291
 72
     2
 10
277.3429673554094
 20
10.84758507263291
 40
0.3333333333334281
 50
180.0
 51
360.0
 73
     1
 72
     1
 10
277.6763006887427
 20
10.84758507263291
 11
277.6763006887427
 21
12.49999999999999
 72
     1
 10
277.6763006887427
 20
12.49999999999999
 11
277.6763006887427
 21
14.23205080756883
 72
     1
 10
277.6763006887427
 20
14.23205080756883
 11
278.5319631214452
 21
12.74999999999999
 72
     2
 10
278.6763006887427
 20
12.83333333333326
 40
0.1666666666667143
 50
209.9999999999654
 51
330.0000000000248
 73
     1
 72
     1
 10
278.8206382560401
 20
12.74999999999999
 11
279.6763006887427
 21
14.23205080756883
 72
     1
 10
279.6763006887427
 20
14.23205080756883
 11
279.6763006887427
 21
12.49999999999999
 72
     1
 10
279.6763006887427
 20
12.49999999999999
 11
279.6763006887427
 21
9.308269070601789
 72
     2
 10
280.0096340220761
 20
9.308269070601789
 40
0.3333333333334281
 50
180.0
 51
360.0
 73
     1
 72
     1
 10
280.3429673554094
 20
9.308269070601789
 11
280.3429673554094
 21
15.73121731203458
 72
     2
 10
280.0780011429341
 20
15.73121731203458
 40
0.2649662124753149
 50
0.0
 51
149.9999999999845
 73
     1
 72
     1
 10
279.848533671786
 20
15.86370041827228
 11
278.6763006887427
 21
13.83333333333326
 72
     1
 10
278.6763006887427
 20
13.83333333333326
 11
277.5040677056995
 21
15.86370041827228
 97
       16
330
73
330
95
330
72
330
94
330
71
330
65
330
66
330
9D
330
67
330
68
330
70
330
93
330
6F
330
6D
330
92
330
6E
 75
     0
 76
     1
 98
        1
 10
0.0
 20
0.0
  0
HATCH
  5
AF
330
4F
100
AcDbEntity
  8
1
  6
Continuous
 62
     7
100
AcDbHatch
 10
0.0
 20
0.0
 30
0.0
210
0.0
220
0.0
230
1.0
  2
SOLID
 70
     1
 71
     1
 91
        1
 92
        1
 93
        7
 72
     1
 10
276.3429673554094
 20
14.92250016016737
 11
276.3429673554094
 21
10.2700211480327
 72
     1
 10
276.3429673554094
 20
10.2700211480327
 11
278.5095415065726
 21
9.020074522361597
 72
     2
 10
278.3429673554094
 20
8.731345993678694
 40
0.3333333333333709
 50
299.9816393688416
 51
479.9816393688507
 73
     0
 72
     1
 10
278.1763932042462
 20
8.442617464995799
 11
276.0098190530831
 21
9.692564090666899
 72
     2
 10
276.3429673554094
 20
10.2700211480327
 40
0.6666666666667425
 50
119.9816393688417
 51
179.9999999999896
 73
     0
 72
     1
 10
275.6763006887427
 20
10.27002114803258
 11
275.6763006887427
 21
14.92250016016737
 72
     2
 10
276.009634022076
 20
14.92250016016737
 40
0.3333333333334281
 50
180.0
 51
360.0
 73
     0
 97
        7
330
75
330
76
330
97
330
77
330
9E
330
74
330
96
 75
     0
 76
     1
 98
        1
 10
0.0
 20
0.0
  0
HATCH
  5
B0
330
4F
100
AcDbEntity
  8
1
  6
Continuous
 62
     7
100
AcDbHatch
 10
0.0
 20
0.0
 30
0.0
210
0.0
220
0.0
230
1.0
  2
SOLID
 70
     1
 71
     1
 91
        1
 92
        1
 93
        5
 72
     1
 10
275.009634022076
 20
14.15326939093666
 11
275.009634022076
 21
11.03925191726329
 72
     1
 10
275.009634022076
 20
11.03925191726329
 11
275.009634022076
 21
10.84673060906323
 72
     2
 10
274.6763006887427
 20
10.84673060906323
 40
0.3333333333332575
 50
0.0
 51
180.0
 73
     0
 72
     1
 10
274.3429673554094
 20
10.84673060906323
 11
274.3429673554094
 21
14.15326939093666
 72
     2
 10
274.6763006887427
 20
14.15326939093666
 40
0.3333333333333144
 50
180.0
 51
360.0
 73
     0
 97
        5
330
78
330
79
330
99
330
7A
330
98
 75
     0
 76
     1
 98
        1
 10
0.0
 20
0.0
  0
HATCH
  5
B1
330
4F
100
AcDbEntity
  8
1
  6
Continuous
 62
     7
100
AcDbHatch
 10
0.0
 20
0.0
 30
0.0
210
0.0
220
0.0
230
1.0
  2
SOLID
 70
     1
 71
     1
 91
        1
 92
        1
 93
       14
 72
     1
 10
282.5097265375795
 20
13.86454086225375
 11
281.6763006887427
 21
14.34536346735195
 72
     1
 10
281.6763006887427
 20
14.34536346735195
 11
281.6763006887427
 21
12.83333333333326
 72
     1
 10
281.6763006887427
 20
12.83333333333326
 11
282.6763006887427
 21
12.83333333333326
 72
     2
 10
282.6763006887427
 20
12.49999999999999
 40
0.3333333333333588
 50
270.0
 51
450.0
 73
     0
 72
     1
 10
282.6763006887427
 20
12.16666666666663
 11
281.6763006887427
 21
12.16666666666663
 72
     1
 10
281.6763006887427
 20
12.16666666666663
 11
281.6763006887427
 21
10.65463653264794
 72
     1
 10
281.6763006887427
 20
10.65463653264794
 11
282.5097265375795
 21
11.13545913774624
 72
     2
 10
282.6763006887427
 20
10.84673060906323
 40
0.333333333333374
 50
240.0183606311678
 51
420.0183606311497
 73
     0
 72
     1
 10
282.8428748399059
 20
10.55800208038033
 11
281.5095415065726
 21
9.788771311149723
 72
     2
 10
281.3429673554094
 20
10.07749983983263
 40
0.3333333333333144
 50
60.01836063115875
 51
180.0
 73
     0
 72
     1
 10
281.0096340220761
 20
10.07749983983263
 11
281.0096340220761
 21
14.92250016016737
 72
     2
 10
281.3429673554094
 20
14.92250016016737
 40
0.3333333333333379
 50
180.0
 51
299.9816393688427
 73
     0
 72
     1
 10
281.5095415065726
 20
15.21122868885026
 11
282.8428748399059
 21
14.44199791961944
 72
     2
 10
282.6763006887427
 20
14.15326939093666
 40
0.3333333333333564
 50
299.9816393688606
 51
479.9816393688408
 73
     0
 97
       14
330
7B
330
A1
330
64
330
A2
330
82
330
9C
330
81
330
80
330
7F
330
9B
330
7E
330
7D
330
7C
330
9A
 75
     0
 76
     1
 98
        1
 10
0.0
 20
0.0
  0
ENDBLK
  5
51
330
4F
100
AcDbEntity
  8
0
100
AcDbBlockEnd
  0
BLOCK
  5
54
330
52
100
AcDbEntity
  8
0
100
AcDbBlockBegin
  2
A4_oriz
 70
     0
 10
297.0000000000001
 20
0.0
 30
0.0
  3
A4_oriz
  1

  0
INSERT
  5
53
330
52
100
AcDbEntity
  8
1
100
AcDbBlockReference
  2
_formato_A4
 10
297.0000000000001
 20
0.0
 30
0.0
  0
ENDBLK
  5
55
330
52
100
AcDbEntity
  8
0
100
AcDbBlockEnd
  0
BLOCK
  5
52E
330
526
100
AcDbEntity
  8
0
100
AcDbBlockBegin
  2
*D3
 70
     1
 10
0.0
 20
0.0
 30
0.0
  3
*D3
  1

  0
LINE
  5
527
330
526
100
AcDbEntity
  8
Bemaßungen_TC_020513_DIN_
  6
Continuous
 62
     7
100
AcDbLine
 10
183.8280478215469
 20
83.37087157765723
 30
0.0
 11
183.8280478215469
 21
112.4748715776573
 31
0.0
  0
LINE
  5
528
330
526
100
AcDbEntity
  8
Bemaßungen_TC_020513_DIN_
  6
Continuous
 62
     7
100
AcDbLine
 10
172.8037194169747
 20
112.4748715776573
 30
0.0
 11
185.8280478215469
 21
112.4748715776573
 31
0.0
  0
LINE
  5
529
330
526
100
AcDbEntity
  8
Bemaßungen_TC_020513_DIN_
  6
Continuous
 62
     7
100
AcDbLine
 10
172.8037194169747
 20
83.37087157765723
 30
0.0
 11
185.8280478215469
 21
83.37087157765723
 31
0.0
  0
SOLID
  5
52A
330
526
100
AcDbEntity
  8
Bemaßungen_TC_020513_DIN_
 62
     7
100
AcDbTrace
 10
184.1571790655154
 20
109.9748715776573
 30
0.0
 11
183.4989165775784
 21
109.9748715776573
 31
0.0
 12
183.8280478215469
 22
112.4748715776573
 32
0.0
 13
183.8280478215469
 23
112.4748715776573
 33
0.0
  0
SOLID
  5
52B
330
526
100
AcDbEntity
  8
Bemaßungen_TC_020513_DIN_
 62
     7
100
AcDbTrace
 10
183.4989165775784
 20
85.87087157765723
 30
0.0
 11
184.1571790655154
 21
85.87087157765723
 31
0.0
 12
183.8280478215469
 22
83.37087157765723
 32
0.0
 13
183.8280478215469
 23
83.37087157765723
 33
0.0
  0
MTEXT
  5
52D
330
526
100
AcDbEntity
  8
Bemaßungen_TC_020513_DIN_
 62
     7
100
AcDbMText
 10
180.8191231407218
 20
94.15538976774366
 30
0.0
 40
3.5
 41
0.0
 71
     7
 72
     1
  1
PG21
  7
CONVERTER_13
 11
0.0
 21
1.0
 31
0.0
 73
     1
 44
0.45454545454545
  0
ENDBLK
  5
52F
330
526
100
AcDbEntity
  8
0
100
AcDbBlockEnd
  0
BLOCK
  5
539
330
532
100
AcDbEntity
  8
0
100
AcDbBlockBegin
  2
*D4
 70
     1
 10
0.0
 20
0.0
 30
0.0
  3
*D4
  1

  0
LINE
  5
533
330
532
100
AcDbEntity
  8
Bemaßungen_TC_020513_DIN_
  6
Continuous
 62
     7
100
AcDbLine
 10
17.80371941697425
 20
159.5328715776568
 30
0.0
 11
17.80371941697425
 21
78.5328715776568
 31
0.0
  0
LINE
  5
534
330
532
100
AcDbEntity
  8
Bemaßungen_TC_020513_DIN_
  6
Continuous
 62
     7
100
AcDbLine
 10
26.80371941697428
 20
78.5328715776568
 30
0.0
 11
15.80371941697425
 21
78.5328715776568
 31
0.0
  0
LINE
  5
535
330
532
100
AcDbEntity
  8
Bemaßungen_TC_020513_DIN_
  6
Continuous
 62
     7
100
AcDbLine
 10
35.80371941697428
 20
159.5328715776568
 30
0.0
 11
15.80371941697425
 21
159.5328715776568
 31
0.0
  0
SOLID
  5
536
330
532
100
AcDbEntity
  8
Bemaßungen_TC_020513_DIN_
 62
     7
100
AcDbTrace
 10
17.47458817300576
 20
81.0328715776568
 30
0.0
 11
18.13285066094274
 21
81.0328715776568
 31
0.0
 12
17.80371941697425
 22
78.5328715776568
 32
0.0
 13
17.80371941697425
 23
78.5328715776568
 33
0.0
  0
SOLID
  5
537
330
532
100
AcDbEntity
  8
Bemaßungen_TC_020513_DIN_
 62
     7
100
AcDbTrace
 10
18.13285066094274
 20
157.0328715776568
 30
0.0
 11
17.47458817300576
 21
157.0328715776568
 31
0.0
 12
17.80371941697425
 22
159.5328715776568
 32
0.0
 13
17.80371941697425
 23
159.5328715776568
 33
0.0
  0
MTEXT
  5
538
330
532
100
AcDbEntity
  8
Bemaßungen_TC_020513_DIN_
 62
     7
100
AcDbMText
 10
14.81403686113133
 20
118.4598201906626
 30
0.0
 40
3.5
 41
0.0
 71
     7
 72
     1
  1
81
  7
CONVERTER_13
 11
0.0
 21
1.0
 31
0.0
 73
     1
 44
0.45454545454545
  0
ENDBLK
  5
53A
330
532
100
AcDbEntity
  8
0
100
AcDbBlockEnd
  0
BLOCK
  5
544
330
53D
100
AcDbEntity
  8
0
100
AcDbBlockBegin
  2
*D5
 70
     1
 10
0.0
 20
0.0
 30
0.0
  3
*D5
  1

  0
LINE
  5
53E
330
53D
100
AcDbEntity
  8
Bemaßungen_TC_020513_DIN_
  6
Continuous
 62
     7
100
AcDbLine
 10
193.299483659847
 20
169.5328715776572
 30
0.0
 11
267.7334336315698
 21
169.5328715776572
 31
0.0
  0
LINE
  5
53F
330
53D
100
AcDbEntity
  8
Bemaßungen_TC_020513_DIN_
  6
Continuous
 62
     7
100
AcDbLine
 10
267.7334336315698
 20
124.5328715776573
 30
0.0
 11
267.7334336315698
 21
171.5328715776572
 31
0.0
  0
LINE
  5
540
330
53D
100
AcDbEntity
  8
Bemaßungen_TC_020513_DIN_
  6
Continuous
 62
     7
100
AcDbLine
 10
193.299483659847
 20
83.5328715776573
 30
0.0
 11
193.299483659847
 21
171.5328715776572
 31
0.0
  0
SOLID
  5
541
330
53D
100
AcDbEntity
  8
Bemaßungen_TC_020513_DIN_
 62
     7
100
AcDbTrace
 10
265.2334336315698
 20
169.2037403336887
 30
0.0
 11
265.2334336315698
 21
169.8620028216257
 31
0.0
 12
267.7334336315698
 22
169.5328715776572
 32
0.0
 13
267.7334336315698
 23
169.5328715776572
 33
0.0
  0
SOLID
  5
542
330
53D
100
AcDbEntity
  8
Bemaßungen_TC_020513_DIN_
 62
     7
100
AcDbTrace
 10
195.799483659847
 20
169.8620028216257
 30
0.0
 11
195.799483659847
 21
169.2037403336887
 31
0.0
 12
193.299483659847
 22
169.5328715776572
 32
0.0
 13
193.299483659847
 23
169.5328715776572
 33
0.0
  0
MTEXT
  5
543
330
53D
100
AcDbEntity
  8
Bemaßungen_TC_020513_DIN_
 62
     7
100
AcDbMText
 10
229.4427910695375
 20
172.4398367517867
 30
0.0
 40
3.5
 41
0.0
 71
     7
 72
     1
  1
74
  7
CONVERTER_13
 11
0.9999999999970619
 21
2.424068405545306E-6
 31
0.0
 73
     1
 44
0.45454545454545
  0
ENDBLK
  5
545
330
53D
100
AcDbEntity
  8
0
100
AcDbBlockEnd
  0
BLOCK
  5
54F
330
548
100
AcDbEntity
  8
0
100
AcDbBlockBegin
  2
*D6
 70
     1
 10
0.0
 20
0.0
 30
0.0
  3
*D6
  1

  0
LINE
  5
549
330
548
100
AcDbEntity
  8
Bemaßungen_TC_020513_DIN_
  6
Continuous
 62
     7
100
AcDbLine
 10
280.949483659851
 20
78.532871577657
 30
0.0
 11
280.949483659851
 21
141.532871577657
 31
0.0
  0
LINE
  5
54A
330
548
100
AcDbEntity
  8
Bemaßungen_TC_020513_DIN_
  6
Continuous
 62
     7
100
AcDbLine
 10
241.9494836598511
 20
141.532871577657
 30
0.0
 11
282.949483659851
 21
141.532871577657
 31
0.0
  0
LINE
  5
54B
330
548
100
AcDbEntity
  8
Bemaßungen_TC_020513_DIN_
  6
Continuous
 62
     7
100
AcDbLine
 10
251.2994836598467
 20
78.532871577657
 30
0.0
 11
282.949483659851
 21
78.532871577657
 31
0.0
  0
SOLID
  5
54C
330
548
100
AcDbEntity
  8
Bemaßungen_TC_020513_DIN_
 62
     7
100
AcDbTrace
 10
281.2786149038195
 20
139.032871577657
 30
0.0
 11
280.6203524158825
 21
139.032871577657
 31
0.0
 12
280.949483659851
 22
141.532871577657
 32
0.0
 13
280.949483659851
 23
141.532871577657
 33
0.0
  0
SOLID
  5
54D
330
548
100
AcDbEntity
  8
Bemaßungen_TC_020513_DIN_
 62
     7
100
AcDbTrace
 10
280.6203524158825
 20
81.032871577657
 30
0.0
 11
281.2786149038195
 21
81.032871577657
 31
0.0
 12
280.949483659851
 22
78.532871577657
 32
0.0
 13
280.949483659851
 23
78.532871577657
 33
0.0
  0
MTEXT
  5
54E
330
548
100
AcDbEntity
  8
Bemaßungen_TC_020513_DIN_
 62
     7
100
AcDbMText
 10
277.9574136551678
 20
108.928167166561
 30
0.0
 40
3.5
 41
0.0
 71
     7
 72
     1
  1
63
  7
CONVERTER_13
 11
0.0
 21
1.0
 31
0.0
 73
     1
 44
0.45454545454545
  0
ENDBLK
  5
550
330
548
100
AcDbEntity
  8
0
100
AcDbBlockEnd
  0
BLOCK
  5
55A
330
553
100
AcDbEntity
  8
0
100
AcDbBlockBegin
  2
*D7
 70
     1
 10
0.0
 20
0.0
 30
0.0
  3
*D7
  1

  0
LINE
  5
554
330
553
100
AcDbEntity
  8
Bemaßungen_TC_020513_DIN_
  6
Continuous
 62
     7
100
AcDbLine
 10
269.7546718836309
 20
87.5328715776569
 30
0.0
 11
269.7546718836309
 21
73.53287157765693
 31
0.0
  0
LINE
  5
555
330
553
100
AcDbEntity
  8
Bemaßungen_TC_020513_DIN_
  6
Continuous
 62
     7
100
AcDbLine
 10
251.2994836598467
 20
78.53287157765693
 30
0.0
 11
271.7546718836309
 21
78.53287157765693
 31
0.0
  0
LINE
  5
556
330
553
100
AcDbEntity
  8
Bemaßungen_TC_020513_DIN_
  6
Continuous
 62
     7
100
AcDbLine
 10
251.2994836598467
 20
82.5328715776569
 30
0.0
 11
271.7546718836309
 21
82.5328715776569
 31
0.0
  0
SOLID
  5
557
330
553
100
AcDbEntity
  8
Bemaßungen_TC_020513_DIN_
 62
     7
100
AcDbTrace
 10
270.0838031275994
 20
76.03287157765693
 30
0.0
 11
269.4255406396624
 21
76.03287157765693
 31
0.0
 12
269.7546718836309
 22
78.53287157765693
 32
0.0
 13
269.7546718836309
 23
78.53287157765693
 33
0.0
  0
SOLID
  5
558
330
553
100
AcDbEntity
  8
Bemaßungen_TC_020513_DIN_
 62
     7
100
AcDbTrace
 10
269.4255406396624
 20
85.0328715776569
 30
0.0
 11
270.0838031275994
 21
85.0328715776569
 31
0.0
 12
269.7546718836309
 22
82.5328715776569
 32
0.0
 13
269.7546718836309
 23
82.5328715776569
 33
0.0
  0
MTEXT
  5
559
330
553
100
AcDbEntity
  8
Bemaßungen_TC_020513_DIN_
 62
     7
100
AcDbMText
 10
266.8477067095016
 20
80.0574350155833
 30
0.0
 40
3.5
 41
0.0
 71
     7
 72
     1
  1
4
  7
CONVERTER_13
 11
0.0
 21
1.0
 31
0.0
 73
     1
 44
0.45454545454545
  0
ENDBLK
  5
55B
330
553
100
AcDbEntity
  8
0
100
AcDbBlockEnd
  0
BLOCK
  5
565
330
55E
100
AcDbEntity
  8
0
100
AcDbBlockBegin
  2
*D8
 70
     1
 10
0.0
 20
0.0
 30
0.0
  3
*D8
  1

  0
LINE
  5
55F
330
55E
100
AcDbEntity
  8
Bemaßungen_TC_020513_DIN_
  6
Continuous
 62
     7
100
AcDbLine
 10
199.2994836598483
 20
64.53287157765688
 30
0.0
 11
244.2994836598483
 21
64.53287157765688
 31
0.0
  0
LINE
  5
560
330
55E
100
AcDbEntity
  8
Bemaßungen_TC_020513_DIN_
  6
Continuous
 62
     7
100
AcDbLine
 10
244.2994836598483
 20
79.53287157765692
 30
0.0
 11
244.2994836598483
 21
62.53287157765688
 31
0.0
  0
LINE
  5
561
330
55E
100
AcDbEntity
  8
Bemaßungen_TC_020513_DIN_
  6
Continuous
 62
     7
100
AcDbLine
 10
199.2994836598483
 20
79.53287157765692
 30
0.0
 11
199.2994836598483
 21
62.53287157765688
 31
0.0
  0
SOLID
  5
562
330
55E
100
AcDbEntity
  8
Bemaßungen_TC_020513_DIN_
 62
     7
100
AcDbTrace
 10
241.7994836598483
 20
64.20374033368839
 30
0.0
 11
241.7994836598483
 21
64.86200282162537
 31
0.0
 12
244.2994836598483
 22
64.53287157765688
 32
0.0
 13
244.2994836598483
 23
64.53287157765688
 33
0.0
  0
SOLID
  5
563
330
55E
100
AcDbEntity
  8
Bemaßungen_TC_020513_DIN_
 62
     7
100
AcDbTrace
 10
201.7994836598483
 20
64.86200282162537
 30
0.0
 11
201.7994836598483
 21
64.20374033368839
 31
0.0
 12
199.2994836598483
 22
64.53287157765688
 32
0.0
 13
199.2994836598483
 23
64.53287157765688
 33
0.0
  0
MTEXT
  5
564
330
55E
100
AcDbEntity
  8
Bemaßungen_TC_020513_DIN_
 62
     7
100
AcDbMText
 10
220.6207683347004
 20
67.51693590811915
 30
0.0
 40
3.5
 41
0.0
 71
     7
 72
     1
  1
45
  7
CONVERTER_13
 11
0.9999999999970619
 21
2.424068405545306E-6
 31
0.0
 73
     1
 44
0.45454545454545
  0
ENDBLK
  5
566
330
55E
100
AcDbEntity
  8
0
100
AcDbBlockEnd
  0
BLOCK
  5
570
330
569
100
AcDbEntity
  8
0
100
AcDbBlockBegin
  2
*D9
 70
     1
 10
0.0
 20
0.0
 30
0.0
  3
*D9
  1

  0
LINE
  5
56A
330
569
100
AcDbEntity
  8
Bemaßungen_TC_020513_DIN_
  6
Continuous
 62
     7
100
AcDbLine
 10
193.2994836598469
 20
56.53287157765688
 30
0.0
 11
250.2994836598469
 21
56.53287157765688
 31
0.0
  0
LINE
  5
56B
330
569
100
AcDbEntity
  8
Bemaßungen_TC_020513_DIN_
  6
Continuous
 62
     7
100
AcDbLine
 10
250.2994836598469
 20
79.53287157765682
 30
0.0
 11
250.2994836598469
 21
54.53287157765688
 31
0.0
  0
LINE
  5
56C
330
569
100
AcDbEntity
  8
Bemaßungen_TC_020513_DIN_
  6
Continuous
 62
     7
100
AcDbLine
 10
193.2994836598469
 20
77.53287157765692
 30
0.0
 11
193.2994836598469
 21
54.53287157765688
 31
0.0
  0
SOLID
  5
56D
330
569
100
AcDbEntity
  8
Bemaßungen_TC_020513_DIN_
 62
     7
100
AcDbTrace
 10
247.7994836598469
 20
56.20374033368839
 30
0.0
 11
247.7994836598469
 21
56.86200282162537
 31
0.0
 12
250.2994836598469
 22
56.53287157765688
 32
0.0
 13
250.2994836598469
 23
56.53287157765688
 33
0.0
  0
SOLID
  5
56E
330
569
100
AcDbEntity
  8
Bemaßungen_TC_020513_DIN_
 62
     7
100
AcDbTrace
 10
195.7994836598469
 20
56.86200282162537
 30
0.0
 11
195.7994836598469
 21
56.20374033368839
 31
0.0
 12
193.2994836598469
 22
56.53287157765688
 32
0.0
 13
193.2994836598469
 23
56.53287157765688
 33
0.0
  0
MTEXT
  5
56F
330
569
100
AcDbEntity
  8
Bemaßungen_TC_020513_DIN_
 62
     7
100
AcDbMText
 10
220.7043290441125
 20
59.52564237578085
 30
0.0
 40
3.5
 41
0.0
 71
     7
 72
     1
  1
57
  7
CONVERTER_13
 11
0.9999999999970619
 21
2.424068405545306E-6
 31
0.0
 73
     1
 44
0.45454545454545
  0
ENDBLK
  5
571
330
569
100
AcDbEntity
  8
0
100
AcDbBlockEnd
  0
BLOCK
  5
57B
330
574
100
AcDbEntity
  8
0
100
AcDbBlockBegin
  2
*D10
 70
     1
 10
0.0
 20
0.0
 30
0.0
  3
*D10
  1

  0
LINE
  5
575
330
574
100
AcDbEntity
  8
Bemaßungen_TC_020513_DIN_
  6
Continuous
 62
     7
100
AcDbLine
 10
165.8037194169742
 20
64.53287157765688
 30
0.0
 11
33.80371941697419
 21
64.53287157765688
 31
0.0
  0
LINE
  5
576
330
574
100
AcDbEntity
  8
Bemaßungen_TC_020513_DIN_
  6
Continuous
 62
     7
100
AcDbLine
 10
33.80371941697419
 20
79.5328715776569
 30
0.0
 11
33.80371941697419
 21
62.53287157765688
 31
0.0
  0
LINE
  5
577
330
574
100
AcDbEntity
  8
Bemaßungen_TC_020513_DIN_
  6
Continuous
 62
     7
100
AcDbLine
 10
165.8037194169742
 20
79.5328715776569
 30
0.0
 11
165.8037194169742
 21
62.53287157765688
 31
0.0
  0
SOLID
  5
578
330
574
100
AcDbEntity
  8
Bemaßungen_TC_020513_DIN_
 62
     7
100
AcDbTrace
 10
36.30371941697419
 20
64.86200282162537
 30
0.0
 11
36.30371941697419
 21
64.20374033368839
 31
0.0
 12
33.80371941697419
 22
64.53287157765688
 32
0.0
 13
33.80371941697419
 23
64.53287157765688
 33
0.0
  0
SOLID
  5
579
330
574
100
AcDbEntity
  8
Bemaßungen_TC_020513_DIN_
 62
     7
100
AcDbTrace
 10
163.3037194169742
 20
64.20374033368839
 30
0.0
 11
163.3037194169742
 21
64.86200282162537
 31
0.0
 12
165.8037194169742
 22
64.53287157765688
 32
0.0
 13
165.8037194169742
 23
64.53287157765688
 33
0.0
  0
MTEXT
  5
57A
330
574
100
AcDbEntity
  8
Bemaßungen_TC_020513_DIN_
 62
     7
100
AcDbMText
 10
98.22571918959812
 20
67.52494158234015
 30
0.0
 40
3.5
 41
0.0
 71
     7
 72
     1
  1
132
  7
CONVERTER_13
 11
0.9999999999970619
 21
2.424068405545306E-6
 31
0.0
 73
     1
 44
0.45454545454545
  0
ENDBLK
  5
57C
330
574
100
AcDbEntity
  8
0
100
AcDbBlockEnd
  0
BLOCK
  5
586
330
57F
100
AcDbEntity
  8
0
100
AcDbBlockBegin
  2
*D11
 70
     1
 10
0.0
 20
0.0
 30
0.0
  3
*D11
  1

  0
LINE
  5
580
330
57F
100
AcDbEntity
  8
Bemaßungen_TC_020513_DIN_
  6
Continuous
 62
     7
100
AcDbLine
 10
171.8037194169739
 20
56.53287157765694
 30
0.0
 11
27.80371941697389
 21
56.53287157765694
 31
0.0
  0
LINE
  5
581
330
57F
100
AcDbEntity
  8
Bemaßungen_TC_020513_DIN_
  6
Continuous
 62
     7
100
AcDbLine
 10
27.80371941697389
 20
79.53287157765692
 30
0.0
 11
27.80371941697389
 21
54.53287157765694
 31
0.0
  0
LINE
  5
582
330
57F
100
AcDbEntity
  8
Bemaßungen_TC_020513_DIN_
  6
Continuous
 62
     7
100
AcDbLine
 10
171.8037194169739
 20
77.53287157765692
 30
0.0
 11
171.8037194169739
 21
54.53287157765694
 31
0.0
  0
SOLID
  5
583
330
57F
100
AcDbEntity
  8
Bemaßungen_TC_020513_DIN_
 62
     7
100
AcDbTrace
 10
30.30371941697389
 20
56.86200282162543
 30
0.0
 11
30.30371941697389
 21
56.20374033368845
 31
0.0
 12
27.80371941697389
 22
56.53287157765694
 32
0.0
 13
27.80371941697389
 23
56.53287157765694
 33
0.0
  0
SOLID
  5
584
330
57F
100
AcDbEntity
  8
Bemaßungen_TC_020513_DIN_
 62
     7
100
AcDbTrace
 10
169.3037194169739
 20
56.20374033368845
 30
0.0
 11
169.3037194169739
 21
56.86200282162543
 31
0.0
 12
171.8037194169739
 22
56.53287157765694
 32
0.0
 13
171.8037194169739
 23
56.53287157765694
 33
0.0
  0
MTEXT
  5
585
330
57F
100
AcDbEntity
  8
Bemaßungen_TC_020513_DIN_
 62
     7
100
AcDbMText
 10
98.19747566981613
 20
59.44545497716688
 30
0.0
 40
3.5
 41
0.0
 71
     7
 72
     1
  1
144
  7
CONVERTER_13
 11
0.9999999999970619
 21
2.424068405545306E-6
 31
0.0
 73
     1
 44
0.45454545454545
  0
ENDBLK
  5
587
330
57F
100
AcDbEntity
  8
0
100
AcDbBlockEnd
  0
BLOCK
  5
591
330
58A
100
AcDbEntity
  8
0
100
AcDbBlockBegin
  2
*D12
 70
     1
 10
0.0
 20
0.0
 30
0.0
  3
*D12
  1

  0
LINE
  5
58B
330
58A
100
AcDbEntity
  8
Bemaßungen_TC_020513_DIN_
  6
Continuous
 62
     7
100
AcDbLine
 10
166.8037194169739
 20
168.8315161098161
 30
0.0
 11
32.80371941697389
 21
168.8315161098161
 31
0.0
  0
LINE
  5
58C
330
58A
100
AcDbEntity
  8
Bemaßungen_TC_020513_DIN_
  6
Continuous
 62
     7
100
AcDbLine
 10
32.80371941697389
 20
135.5328715776568
 30
0.0
 11
32.80371941697389
 21
170.8315161098161
 31
0.0
  0
LINE
  5
58D
330
58A
100
AcDbEntity
  8
Bemaßungen_TC_020513_DIN_
  6
Continuous
 62
     7
100
AcDbLine
 10
166.8037194169739
 20
135.5328715776568
 30
0.0
 11
166.8037194169739
 21
170.8315161098161
 31
0.0
  0
SOLID
  5
58E
330
58A
100
AcDbEntity
  8
Bemaßungen_TC_020513_DIN_
 62
     7
100
AcDbTrace
 10
35.30371941697389
 20
169.1606473537846
 30
0.0
 11
35.30371941697389
 21
168.5023848658476
 31
0.0
 12
32.80371941697389
 22
168.8315161098161
 32
0.0
 13
32.80371941697389
 23
168.8315161098161
 33
0.0
  0
SOLID
  5
58F
330
58A
100
AcDbEntity
  8
Bemaßungen_TC_020513_DIN_
 62
     7
100
AcDbTrace
 10
164.3037194169739
 20
168.5023848658476
 30
0.0
 11
164.3037194169739
 21
169.1606473537846
 31
0.0
 12
166.8037194169739
 22
168.8315161098161
 32
0.0
 13
166.8037194169739
 23
168.8315161098161
 33
0.0
  0
MTEXT
  5
590
330
58A
100
AcDbEntity
  8
Bemaßungen_TC_020513_DIN_
 62
     7
100
AcDbMText
 10
98.19747566981613
 20
171.8235861144993
 30
0.0
 40
3.5
 41
0.0
 71
     7
 72
     1
  1
134
  7
CONVERTER_13
 11
0.9999999999970619
 21
2.424068405545306E-6
 31
0.0
 73
     1
 44
0.45454545454545
  0
ENDBLK
  5
592
330
58A
100
AcDbEntity
  8
0
100
AcDbBlockEnd
  0
ENDSEC
  0
SECTION
  2
ENTITIES
  0
INSERT
  5
56
330
1F
100
AcDbEntity
  8
0
100
AcDbBlockReference
  2
A4_oriz
 10
297.0000000000001
 20
0.0
 30
0.0
  0
POINT
  5
B2
330
1F
100
AcDbEntity
  8
Bemaßungen_TC_020513_DIN_
 62
     7
100
AcDbPoint
 10
171.8037194169738
 20
112.4748715776573
 30
0.0
  0
POINT
  5
B3
330
1F
100
AcDbEntity
  8
Bemaßungen_TC_020513_DIN_
 62
     7
100
AcDbPoint
 10
171.8037194169738
 20
83.37087157765691
 30
0.0
  0
POINT
  5
B4
330
1F
100
AcDbEntity
  8
Bemaßungen_TC_020513_DIN_
 62
     7
100
AcDbPoint
 10
27.80371941697416
 20
78.53287157765689
 30
0.0
  0
POINT
  5
B5
330
1F
100
AcDbEntity
  8
Bemaßungen_TC_020513_DIN_
 62
     7
100
AcDbPoint
 10
36.80371941697416
 20
159.5328715776574
 30
0.0
  0
POINT
  5
B6
330
1F
100
AcDbEntity
  8
Bemaßungen_TC_020513_DIN_
 62
     7
100
AcDbPoint
 10
267.7334336315698
 20
123.5328715776574
 30
0.0
  0
POINT
  5
B7
330
1F
100
AcDbEntity
  8
Bemaßungen_TC_020513_DIN_
 62
     7
100
AcDbPoint
 10
193.2994836598468
 20
82.53287157765689
 30
0.0
  0
POINT
  5
B8
330
1F
100
AcDbEntity
  8
Bemaßungen_TC_020513_DIN_
 62
     7
100
AcDbPoint
 10
240.9494836598507
 20
141.5328715776574
 30
0.0
  0
POINT
  5
B9
330
1F
100
AcDbEntity
  8
Bemaßungen_TC_020513_DIN_
 62
     7
100
AcDbPoint
 10
250.2994836598468
 20
78.53287157765689
 30
0.0
  0
POINT
  5
BA
330
1F
100
AcDbEntity
  8
Bemaßungen_TC_020513_DIN_
 62
     7
100
AcDbPoint
 10
250.2994836598468
 20
78.53287157765689
 30
0.0
  0
POINT
  5
BB
330
1F
100
AcDbEntity
  8
Bemaßungen_TC_020513_DIN_
 62
     7
100
AcDbPoint
 10
250.2994836598468
 20
82.53287157765689
 30
0.0
  0
POINT
  5
BC
330
1F
100
AcDbEntity
  8
Bemaßungen_TC_020513_DIN_
 62
     7
100
AcDbPoint
 10
244.2994836598488
 20
80.53287157765689
 30
0.0
  0
POINT
  5
BD
330
1F
100
AcDbEntity
  8
Bemaßungen_TC_020513_DIN_
 62
     7
100
AcDbPoint
 10
199.2994836598488
 20
80.53287157765689
 30
0.0
  0
POINT
  5
BE
330
1F
100
AcDbEntity
  8
Bemaßungen_TC_020513_DIN_
 62
     7
100
AcDbPoint
 10
250.2994836598468
 20
80.53287157765689
 30
0.0
  0
POINT
  5
BF
330
1F
100
AcDbEntity
  8
Bemaßungen_TC_020513_DIN_
 62
     7
100
AcDbPoint
 10
193.2994836598468
 20
78.53287157765689
 30
0.0
  0
POINT
  5
C0
330
1F
100
AcDbEntity
  8
Bemaßungen_TC_020513_DIN_
 62
     7
100
AcDbPoint
 10
33.80371941697416
 20
80.53287157765689
 30
0.0
  0
POINT
  5
C1
330
1F
100
AcDbEntity
  8
Bemaßungen_TC_020513_DIN_
 62
     7
100
AcDbPoint
 10
165.8037194169738
 20
80.53287157765689
 30
0.0
  0
POINT
  5
C2
330
1F
100
AcDbEntity
  8
Bemaßungen_TC_020513_DIN_
 62
     7
100
AcDbPoint
 10
27.80371941697416
 20
80.53287157765689
 30
0.0
  0
POINT
  5
C3
330
1F
100
AcDbEntity
  8
Bemaßungen_TC_020513_DIN_
 62
     7
100
AcDbPoint
 10
171.8037194169738
 20
78.53287157765689
 30
0.0
  0
POINT
  5
C4
330
1F
100
AcDbEntity
  8
Bemaßungen_TC_020513_DIN_
 62
     7
100
AcDbPoint
 10
32.80371941697416
 20
134.5328715776574
 30
0.0
  0
POINT
  5
C5
330
1F
100
AcDbEntity
  8
Bemaßungen_TC_020513_DIN_
 62
     7
100
AcDbPoint
 10
166.8037194169738
 20
134.5328715776574
 30
0.0
  0
LINE
  5
C6
330
1F
100
AcDbEntity
  8
Sichtbare_Kanten_TC_020513_DIN_
  6
Continuous
 62
     7
100
AcDbLine
 10
102.8037194169738
 20
144.7828715776574
 30
0.0
 11
102.0537194169738
 21
144.7828715776574
 31
0.0
  0
LINE
  5
C7
330
1F
100
AcDbEntity
  8
Sichtbare_Kanten_TC_020513_DIN_
  6
Continuous
 62
     7
100
AcDbLine
 10
102.0537194169738
 20
144.7828715776574
 30
0.0
 11
102.0537194169738
 21
143.7354355022573
 31
0.0
  0
LINE
  5
C8
330
1F
100
AcDbEntity
  8
Sichtbare_Kanten_TC_020513_DIN_
  6
Continuous
 62
     7
100
AcDbLine
 10
102.0537194169738
 20
143.7354355022573
 30
0.0
 11
102.6787888036018
 21
144.0960524560803
 31
0.0
  0
LINE
  5
C9
330
1F
100
AcDbEntity
  8
Sichtbare_Kanten_TC_020513_DIN_
  6
Continuous
 62
     7
100
AcDbLine
 10
102.9286500303468
 20
143.6629596630563
 30
0.0
 11
101.9286500303468
 21
143.0860365861333
 31
0.0
  0
LINE
  5
CA
330
1F
100
AcDbEntity
  8
Sichtbare_Kanten_TC_020513_DIN_
  6
Continuous
 62
     7
100
AcDbLine
 10
101.5537194169738
 20
143.3025829826453
 30
0.0
 11
101.5537194169738
 21
146.7631601726683
 31
0.0
  0
LINE
  5
CB
330
1F
100
AcDbEntity
  8
Sichtbare_Kanten_TC_020513_DIN_
  6
Continuous
 62
     7
100
AcDbLine
 10
102.0537194169738
 20
145.2828715776574
 30
0.0
 11
102.8037194169738
 21
145.2828715776574
 31
0.0
  0
LINE
  5
CC
330
1F
100
AcDbEntity
  8
Sichtbare_Kanten_TC_020513_DIN_
  6
Continuous
 62
     7
100
AcDbLine
 10
102.0537194169738
 20
146.3303076530563
 30
0.0
 11
102.0537194169738
 21
145.2828715776574
 31
0.0
  0
LINE
  5
CD
330
1F
100
AcDbEntity
  8
Sichtbare_Kanten_TC_020513_DIN_
  6
Continuous
 62
     7
100
AcDbLine
 10
102.6787888036018
 20
145.9696906992333
 30
0.0
 11
102.0537194169738
 21
146.3303076530563
 31
0.0
  0
LINE
  5
CE
330
1F
100
AcDbEntity
  8
Sichtbare_Kanten_TC_020513_DIN_
  6
Continuous
 62
     7
100
AcDbLine
 10
101.9286500303468
 20
146.9797065691803
 30
0.0
 11
102.9286500303468
 21
146.4027834922573
 31
0.0
  0
LINE
  5
CF
330
1F
100
AcDbEntity
  8
Sichtbare_Kanten_TC_020513_DIN_
  6
Continuous
 62
     7
100
AcDbLine
 10
96.5037194169742
 20
143.9083522134153
 30
0.0
 11
96.5037194169742
 21
146.1573909418993
 31
0.0
  0
LINE
  5
D0
330
1F
100
AcDbEntity
  8
Sichtbare_Kanten_TC_020513_DIN_
  6
Continuous
 62
     7
100
AcDbLine
 10
97.0037194169742
 20
146.1573909418993
 30
0.0
 11
97.0037194169742
 21
143.9083522134153
 31
0.0
  0
LINE
  5
D1
330
1F
100
AcDbEntity
  8
Sichtbare_Kanten_TC_020513_DIN_
  6
Continuous
 62
     7
100
AcDbLine
 10
105.8034417163138
 20
145.0328715776574
 30
0.0
 11
99.80371941697376
 21
148.4942498272763
 31
0.0
  0
LINE
  5
D2
330
1F
100
AcDbEntity
  8
Sichtbare_Kanten_TC_020513_DIN_
  6
Continuous
 62
     7
100
AcDbLine
 10
99.80371941697376
 20
148.4942498272763
 30
0.0
 11
93.80399711763431
 21
145.0328715776574
 31
0.0
  0
LINE
  5
D3
330
1F
100
AcDbEntity
  8
Sichtbare_Kanten_TC_020513_DIN_
  6
Continuous
 62
     7
100
AcDbLine
 10
99.80371941697376
 20
148.7828715776574
 30
0.0
 11
106.3037194169738
 21
145.0328715776574
 31
0.0
  0
LINE
  5
D4
330
1F
100
AcDbEntity
  8
Sichtbare_Kanten_TC_020513_DIN_
  6
Continuous
 62
     7
100
AcDbLine
 10
106.3037194169738
 20
145.0328715776574
 30
0.0
 11
99.80371941697376
 21
141.2828715776574
 31
0.0
  0
LINE
  5
D5
330
1F
100
AcDbEntity
  8
Sichtbare_Kanten_TC_020513_DIN_
  6
Continuous
 62
     7
100
AcDbLine
 10
93.80399711763431
 20
145.0328715776574
 30
0.0
 11
99.80371941697376
 21
141.5714933280374
 31
0.0
  0
LINE
  5
D6
330
1F
100
AcDbEntity
  8
Sichtbare_Kanten_TC_020513_DIN_
  6
Continuous
 62
     7
100
AcDbLine
 10
99.80371941697376
 20
141.5714933280374
 30
0.0
 11
105.8034417163138
 21
145.0328715776574
 31
0.0
  0
LINE
  5
D7
330
1F
100
AcDbEntity
  8
Sichtbare_Kanten_TC_020513_DIN_
  6
Continuous
 62
     7
100
AcDbLine
 10
99.80371941697376
 20
141.2828715776574
 30
0.0
 11
93.30371941697416
 21
145.0328715776574
 31
0.0
  0
LINE
  5
D8
330
1F
100
AcDbEntity
  8
Sichtbare_Kanten_TC_020513_DIN_
  6
Continuous
 62
     7
100
AcDbLine
 10
93.30371941697416
 20
145.0328715776574
 30
0.0
 11
99.80371941697376
 21
148.7828715776574
 31
0.0
  0
LINE
  5
D9
330
1F
100
AcDbEntity
  8
Sichtbare_Kanten_TC_020513_DIN_
  6
Continuous
 62
     7
100
AcDbLine
 10
99.67878880360178
 20
141.9321904322873
 30
0.0
 11
97.62878880360176
 21
143.1148827399793
 31
0.0
  0
LINE
  5
DA
330
1F
100
AcDbEntity
  8
Sichtbare_Kanten_TC_020513_DIN_
  6
Continuous
 62
     7
100
AcDbLine
 10
97.5037194169742
 20
143.3314291364913
 30
0.0
 11
97.5037194169742
 21
146.7343140188224
 31
0.0
  0
LINE
  5
DB
330
1F
100
AcDbEntity
  8
Sichtbare_Kanten_TC_020513_DIN_
  6
Continuous
 62
     7
100
AcDbLine
 10
98.0037194169742
 20
143.4758201176414
 30
0.0
 11
99.92865003034677
 21
142.3652832253113
 31
0.0
  0
LINE
  5
DC
330
1F
100
AcDbEntity
  8
Sichtbare_Kanten_TC_020513_DIN_
  6
Continuous
 62
     7
100
AcDbLine
 10
98.0037194169742
 20
146.7343140188224
 30
0.0
 11
98.0037194169742
 21
143.4758201176414
 31
0.0
  0
LINE
  5
DD
330
1F
100
AcDbEntity
  8
Sichtbare_Kanten_TC_020513_DIN_
  6
Continuous
 62
     7
100
AcDbLine
 10
99.00620532330129
 20
147.4867101834713
 30
0.0
 11
99.80371941697376
 21
146.3853752527503
 31
0.0
  0
LINE
  5
DE
330
1F
100
AcDbEntity
  8
Sichtbare_Kanten_TC_020513_DIN_
  6
Continuous
 62
     7
100
AcDbLine
 10
99.80371941697376
 20
146.3853752527503
 30
0.0
 11
100.6012335106468
 21
147.4867101834713
 31
0.0
  0
LINE
  5
DF
330
1F
100
AcDbEntity
  8
Sichtbare_Kanten_TC_020513_DIN_
  6
Continuous
 62
     7
100
AcDbLine
 10
101.0537194169738
 20
147.3400832495913
 30
0.0
 11
101.0537194169738
 21
142.7256599057223
 31
0.0
  0
LINE
  5
E0
330
1F
100
AcDbEntity
  8
Sichtbare_Kanten_TC_020513_DIN_
  6
Continuous
 62
     7
100
AcDbLine
 10
100.5537194169738
 20
142.7256599057223
 30
0.0
 11
100.5537194169738
 21
146.5685914534473
 31
0.0
  0
LINE
  5
E1
330
1F
100
AcDbEntity
  8
Sichtbare_Kanten_TC_020513_DIN_
  6
Continuous
 62
     7
100
AcDbLine
 10
100.5537194169738
 20
146.5685914534473
 30
0.0
 11
99.80371941697376
 21
145.5328715776574
 31
0.0
  0
LINE
  5
E2
330
1F
100
AcDbEntity
  8
Sichtbare_Kanten_TC_020513_DIN_
  6
Continuous
 62
     7
100
AcDbLine
 10
98.55371941697416
 20
143.9083522134153
 30
0.0
 11
98.55371941697416
 21
147.3400832495913
 31
0.0
  0
LINE
  5
E3
330
1F
100
AcDbEntity
  8
Sichtbare_Kanten_TC_020513_DIN_
  6
Continuous
 62
     7
100
AcDbLine
 10
99.05371941697416
 20
146.5685914534473
 30
0.0
 11
99.05371941697416
 21
143.9083522134153
 31
0.0
  0
LINE
  5
E4
330
1F
100
AcDbEntity
  8
Sichtbare_Kanten_TC_020513_DIN_
  6
Continuous
 62
     7
100
AcDbLine
 10
99.80371941697376
 20
145.5328715776574
 30
0.0
 11
99.05371941697416
 21
146.5685914534473
 31
0.0
  0
LINE
  5
E5
330
1F
100
AcDbEntity
  8
Sichtbare_Kanten_TC_020513_DIN_
  6
Continuous
 62
     7
100
AcDbLine
 10
149.9272021925528
 20
140.3336798841544
 30
0.0
 11
150.2956006578108
 21
141.7085616739273
 31
0.0
  0
LINE
  5
E6
330
1F
100
AcDbEntity
  8
Sichtbare_Kanten_TC_020513_DIN_
  6
Continuous
 62
     7
100
AcDbLine
 10
150.5370821143838
 20
141.8938569126523
 30
0.0
 11
160.0037194169738
 21
141.8938569126523
 31
0.0
  0
LINE
  5
E7
330
1F
100
AcDbEntity
  8
Sichtbare_Kanten_TC_020513_DIN_
  6
Continuous
 62
     7
100
AcDbLine
 10
160.0037194169738
 20
151.8938569126523
 30
0.0
 11
158.0370821143838
 21
151.8938569126523
 31
0.0
  0
LINE
  5
E8
330
1F
100
AcDbEntity
  8
Sichtbare_Kanten_TC_020513_DIN_
  6
Continuous
 62
     7
100
AcDbLine
 10
157.2710376712648
 20
151.5366445223383
 30
0.0
 11
156.1923119788378
 21
150.2510693029653
 31
0.0
  0
LINE
  5
E9
330
1F
100
AcDbEntity
  8
Sichtbare_Kanten_TC_020513_DIN_
  6
Continuous
 62
     7
100
AcDbLine
 10
155.4262675357188
 20
149.8938569126523
 30
0.0
 11
150.5370821143838
 21
149.8938569126523
 31
0.0
  0
LINE
  5
EA
330
1F
100
AcDbEntity
  8
Sichtbare_Kanten_TC_020513_DIN_
  6
Continuous
 62
     7
100
AcDbLine
 10
148.4259324914568
 20
151.7104942152423
 30
0.0
 11
147.1037973847238
 21
151.7104942152423
 31
0.0
  0
LINE
  5
EB
330
1F
100
AcDbEntity
  8
Sichtbare_Kanten_TC_020513_DIN_
  6
Continuous
 62
     7
100
AcDbLine
 10
145.1719457321458
 20
151.7104942152423
 30
0.0
 11
147.1037973847238
 21
151.7104942152423
 31
0.0
  0
LINE
  5
EC
330
1F
100
AcDbEntity
  8
Sichtbare_Kanten_TC_020513_DIN_
  6
Continuous
 62
     7
100
AcDbLine
 10
148.0629561196978
 20
134.2336431474683
 30
0.0
 11
149.6915017724998
 21
139.7420143177173
 31
0.0
  0
LINE
  5
ED
330
1F
100
AcDbEntity
  8
Sichtbare_Kanten_TC_020513_DIN_
  6
Continuous
 62
     7
100
AcDbLine
 10
147.1037973847238
 20
153.1104942152423
 30
0.0
 11
145.1719457321458
 21
153.1104942152423
 31
0.0
  0
LINE
  5
EE
330
1F
100
AcDbEntity
  8
Sichtbare_Kanten_TC_020513_DIN_
  6
Continuous
 62
     7
100
AcDbLine
 10
147.1037973847238
 20
153.1104942152423
 30
0.0
 11
148.4259324914568
 21
153.1104942152423
 31
0.0
  0
LINE
  5
EF
330
1F
100
AcDbEntity
  8
Sichtbare_Kanten_TC_020513_DIN_
  6
Continuous
 62
     7
100
AcDbLine
 10
162.8037194169738
 20
154.3763328464473
 30
0.0
 11
162.8037194169738
 21
152.3291131618483
 31
0.0
  0
LINE
  5
F0
330
1F
100
AcDbEntity
  8
Sichtbare_Kanten_TC_020513_DIN_
  6
Continuous
 62
     7
100
AcDbLine
 10
161.4037194169738
 20
152.3291131618483
 30
0.0
 11
161.4037194169738
 21
154.3763328464473
 31
0.0
  0
LINE
  5
F1
330
1F
100
AcDbEntity
  8
Sichtbare_Kanten_TC_020513_DIN_
  6
Continuous
 62
     7
100
AcDbLine
 10
162.8037194169738
 20
141.8938569126523
 30
0.0
 11
162.8037194169738
 21
137.9250213407493
 31
0.0
  0
LINE
  5
F2
330
1F
100
AcDbEntity
  8
Sichtbare_Kanten_TC_020513_DIN_
  6
Continuous
 62
     7
100
AcDbLine
 10
162.8037194169738
 20
137.9250213407493
 30
0.0
 11
162.8037194169738
 21
137.5764494490303
 31
0.0
  0
LINE
  5
F3
330
1F
100
AcDbEntity
  8
Sichtbare_Kanten_TC_020513_DIN_
  6
Continuous
 62
     7
100
AcDbLine
 10
162.8037194169738
 20
137.5764494490303
 30
0.0
 11
162.8037194169738
 21
132.7484698929283
 31
0.0
  0
LINE
  5
F4
330
1F
100
AcDbEntity
  8
Sichtbare_Kanten_TC_020513_DIN_
  6
Continuous
 62
     7
100
AcDbLine
 10
162.8037194169738
 20
124.5328715776574
 30
0.0
 11
162.8037194169738
 21
132.7484698929283
 31
0.0
  0
LINE
  5
F5
330
1F
100
AcDbEntity
  8
Sichtbare_Kanten_TC_020513_DIN_
  6
Continuous
 62
     7
100
AcDbLine
 10
162.8037194169738
 20
124.5328715776574
 30
0.0
 11
162.8037194169738
 21
124.3952166626494
 31
0.0
  0
LINE
  5
F6
330
1F
100
AcDbEntity
  8
Sichtbare_Kanten_TC_020513_DIN_
  6
Continuous
 62
     7
100
AcDbLine
 10
162.8037194169738
 20
154.3763328464473
 30
0.0
 11
162.8037194169738
 21
159.5328715776574
 31
0.0
  0
LINE
  5
F7
330
1F
100
AcDbEntity
  8
Sichtbare_Kanten_TC_020513_DIN_
  6
Continuous
 62
     7
100
AcDbLine
 10
161.4037194169738
 20
159.5328715776574
 30
0.0
 11
161.4037194169738
 21
154.3763328464473
 31
0.0
  0
LINE
  5
F8
330
1F
100
AcDbEntity
  8
Sichtbare_Kanten_TC_020513_DIN_
  6
Continuous
 62
     7
100
AcDbLine
 10
161.4037194169738
 20
124.3952166626494
 30
0.0
 11
161.4037194169738
 21
124.5328715776574
 31
0.0
  0
LINE
  5
F9
330
1F
100
AcDbEntity
  8
Sichtbare_Kanten_TC_020513_DIN_
  6
Continuous
 62
     7
100
AcDbLine
 10
161.4037194169738
 20
132.7484698929283
 30
0.0
 11
161.4037194169738
 21
124.5328715776574
 31
0.0
  0
LINE
  5
FA
330
1F
100
AcDbEntity
  8
Sichtbare_Kanten_TC_020513_DIN_
  6
Continuous
 62
     7
100
AcDbLine
 10
161.4037194169738
 20
132.7484698929283
 30
0.0
 11
161.4037194169738
 21
137.5764494490303
 31
0.0
  0
LINE
  5
FB
330
1F
100
AcDbEntity
  8
Sichtbare_Kanten_TC_020513_DIN_
  6
Continuous
 62
     7
100
AcDbLine
 10
161.4037194169738
 20
137.5764494490303
 30
0.0
 11
161.4037194169738
 21
137.9250213407493
 31
0.0
  0
LINE
  5
FC
330
1F
100
AcDbEntity
  8
Sichtbare_Kanten_TC_020513_DIN_
  6
Continuous
 62
     7
100
AcDbLine
 10
161.4037194169738
 20
137.9250213407493
 30
0.0
 11
161.4037194169738
 21
141.8938569126523
 31
0.0
  0
LINE
  5
FD
330
1F
100
AcDbEntity
  8
Sichtbare_Kanten_TC_020513_DIN_
  6
Continuous
 62
     7
100
AcDbLine
 10
162.8037194169738
 20
124.5328715776574
 30
0.0
 11
161.4037194169738
 21
124.5328715776574
 31
0.0
  0
LINE
  5
FE
330
1F
100
AcDbEntity
  8
Sichtbare_Kanten_TC_020513_DIN_
  6
Continuous
 62
     7
100
AcDbLine
 10
162.8037194169738
 20
159.5328715776574
 30
0.0
 11
161.4037194169738
 21
159.5328715776574
 31
0.0
  0
LINE
  5
FF
330
1F
100
AcDbEntity
  8
Sichtbare_Kanten_TC_020513_DIN_
  6
Continuous
 62
     7
100
AcDbLine
 10
162.9037194169738
 20
124.2952166626493
 30
0.0
 11
163.1377079883898
 21
124.2952166626493
 31
0.0
  0
LINE
  5
100
330
1F
100
AcDbEntity
  8
Sichtbare_Kanten_TC_020513_DIN_
  6
Continuous
 62
     7
100
AcDbLine
 10
164.8037194169738
 20
124.2952166626493
 30
0.0
 11
165.3413743319818
 21
124.2952166626493
 31
0.0
  0
LINE
  5
101
330
1F
100
AcDbEntity
  8
Sichtbare_Kanten_TC_020513_DIN_
  6
Continuous
 62
     7
100
AcDbLine
 10
165.8413743319818
 20
124.2952166626493
 30
0.0
 11
165.3413743319818
 21
124.2952166626493
 31
0.0
  0
LINE
  5
102
330
1F
100
AcDbEntity
  8
Sichtbare_Kanten_TC_020513_DIN_
  6
Continuous
 62
     7
100
AcDbLine
 10
165.3413743319818
 20
122.8952166626494
 30
0.0
 11
164.8037194169738
 21
122.8952166626494
 31
0.0
  0
LINE
  5
103
330
1F
100
AcDbEntity
  8
Sichtbare_Kanten_TC_020513_DIN_
  6
Continuous
 62
     7
100
AcDbLine
 10
165.3413743319818
 20
122.8952166626494
 30
0.0
 11
165.8413743319818
 21
122.8952166626494
 31
0.0
  0
LINE
  5
104
330
1F
100
AcDbEntity
  8
Sichtbare_Kanten_TC_020513_DIN_
  6
Continuous
 62
     7
100
AcDbLine
 10
165.8413743319818
 20
124.2952166626493
 30
0.0
 11
165.8413743319818
 21
122.8952166626494
 31
0.0
  0
LINE
  5
105
330
1F
100
AcDbEntity
  8
Sichtbare_Kanten_TC_020513_DIN_
  6
Continuous
 62
     7
100
AcDbLine
 10
149.6915017724998
 20
139.1503487512804
 30
0.0
 11
148.0629561196978
 21
133.6419775810313
 31
0.0
  0
LINE
  5
106
330
1F
100
AcDbEntity
  8
Sichtbare_Kanten_TC_020513_DIN_
  6
Continuous
 62
     7
100
AcDbLine
 10
44.18117129822946
 20
149.8938569126523
 30
0.0
 11
49.07035671956498
 21
149.8938569126523
 31
0.0
  0
LINE
  5
107
330
1F
100
AcDbEntity
  8
Sichtbare_Kanten_TC_020513_DIN_
  6
Continuous
 62
     7
100
AcDbLine
 10
42.3364011626839
 20
151.5366445223383
 30
0.0
 11
43.41512685511049
 21
150.2510693029653
 31
0.0
  0
LINE
  5
108
330
1F
100
AcDbEntity
  8
Sichtbare_Kanten_TC_020513_DIN_
  6
Continuous
 62
     7
100
AcDbLine
 10
39.60371941697417
 20
151.8938569126523
 30
0.0
 11
41.57035671956487
 21
151.8938569126523
 31
0.0
  0
LINE
  5
109
330
1F
100
AcDbEntity
  8
Sichtbare_Kanten_TC_020513_DIN_
  6
Continuous
 62
     7
100
AcDbLine
 10
49.07035671956498
 20
141.8938569126523
 30
0.0
 11
39.60371941697417
 21
141.8938569126523
 31
0.0
  0
LINE
  5
10A
330
1F
100
AcDbEntity
  8
Sichtbare_Kanten_TC_020513_DIN_
  6
Continuous
 62
     7
100
AcDbLine
 10
49.6802366413952
 20
140.3336798841544
 30
0.0
 11
49.3118381761372
 21
141.7085616739273
 31
0.0
  0
LINE
  5
10B
330
1F
100
AcDbEntity
  8
Sichtbare_Kanten_TC_020513_DIN_
  6
Continuous
 62
     7
100
AcDbLine
 10
36.80371941697416
 20
124.5328715776574
 30
0.0
 11
36.80371941697416
 21
124.3952166626494
 31
0.0
  0
LINE
  5
10C
330
1F
100
AcDbEntity
  8
Sichtbare_Kanten_TC_020513_DIN_
  6
Continuous
 62
     7
100
AcDbLine
 10
36.80371941697416
 20
124.5328715776574
 30
0.0
 11
36.80371941697416
 21
132.7484698929283
 31
0.0
  0
LINE
  5
10D
330
1F
100
AcDbEntity
  8
Sichtbare_Kanten_TC_020513_DIN_
  6
Continuous
 62
     7
100
AcDbLine
 10
36.80371941697416
 20
137.5764494490303
 30
0.0
 11
36.80371941697416
 21
132.7484698929283
 31
0.0
  0
LINE
  5
10E
330
1F
100
AcDbEntity
  8
Sichtbare_Kanten_TC_020513_DIN_
  6
Continuous
 62
     7
100
AcDbLine
 10
36.80371941697416
 20
137.9250213407493
 30
0.0
 11
36.80371941697416
 21
137.5764494490303
 31
0.0
  0
LINE
  5
10F
330
1F
100
AcDbEntity
  8
Sichtbare_Kanten_TC_020513_DIN_
  6
Continuous
 62
     7
100
AcDbLine
 10
36.80371941697416
 20
141.8938569126523
 30
0.0
 11
36.80371941697416
 21
137.9250213407493
 31
0.0
  0
LINE
  5
110
330
1F
100
AcDbEntity
  8
Sichtbare_Kanten_TC_020513_DIN_
  6
Continuous
 62
     7
100
AcDbLine
 10
36.80371941697416
 20
154.3763328464473
 30
0.0
 11
36.80371941697416
 21
152.3291131618483
 31
0.0
  0
LINE
  5
111
330
1F
100
AcDbEntity
  8
Sichtbare_Kanten_TC_020513_DIN_
  6
Continuous
 62
     7
100
AcDbLine
 10
36.80371941697416
 20
154.3763328464473
 30
0.0
 11
36.80371941697416
 21
159.5328715776574
 31
0.0
  0
LINE
  5
112
330
1F
100
AcDbEntity
  8
Sichtbare_Kanten_TC_020513_DIN_
  6
Continuous
 62
     7
100
AcDbLine
 10
38.2037194169742
 20
159.5328715776574
 30
0.0
 11
38.2037194169742
 21
154.3763328464473
 31
0.0
  0
LINE
  5
113
330
1F
100
AcDbEntity
  8
Sichtbare_Kanten_TC_020513_DIN_
  6
Continuous
 62
     7
100
AcDbLine
 10
38.2037194169742
 20
152.3291131618483
 30
0.0
 11
38.2037194169742
 21
154.3763328464473
 31
0.0
  0
LINE
  5
114
330
1F
100
AcDbEntity
  8
Sichtbare_Kanten_TC_020513_DIN_
  6
Continuous
 62
     7
100
AcDbLine
 10
38.2037194169742
 20
137.9250213407493
 30
0.0
 11
38.2037194169742
 21
141.8938569126523
 31
0.0
  0
LINE
  5
115
330
1F
100
AcDbEntity
  8
Sichtbare_Kanten_TC_020513_DIN_
  6
Continuous
 62
     7
100
AcDbLine
 10
38.2037194169742
 20
137.5764494490303
 30
0.0
 11
38.2037194169742
 21
137.9250213407493
 31
0.0
  0
LINE
  5
116
330
1F
100
AcDbEntity
  8
Sichtbare_Kanten_TC_020513_DIN_
  6
Continuous
 62
     7
100
AcDbLine
 10
38.2037194169742
 20
132.7484698929283
 30
0.0
 11
38.2037194169742
 21
137.5764494490303
 31
0.0
  0
LINE
  5
117
330
1F
100
AcDbEntity
  8
Sichtbare_Kanten_TC_020513_DIN_
  6
Continuous
 62
     7
100
AcDbLine
 10
38.2037194169742
 20
132.7484698929283
 30
0.0
 11
38.2037194169742
 21
124.5328715776574
 31
0.0
  0
LINE
  5
118
330
1F
100
AcDbEntity
  8
Sichtbare_Kanten_TC_020513_DIN_
  6
Continuous
 62
     7
100
AcDbLine
 10
38.2037194169742
 20
124.3952166626494
 30
0.0
 11
38.2037194169742
 21
124.5328715776574
 31
0.0
  0
LINE
  5
119
330
1F
100
AcDbEntity
  8
Sichtbare_Kanten_TC_020513_DIN_
  6
Continuous
 62
     7
100
AcDbLine
 10
36.80371941697416
 20
124.5328715776574
 30
0.0
 11
38.2037194169742
 21
124.5328715776574
 31
0.0
  0
LINE
  5
11A
330
1F
100
AcDbEntity
  8
Sichtbare_Kanten_TC_020513_DIN_
  6
Continuous
 62
     7
100
AcDbLine
 10
36.80371941697416
 20
159.5328715776574
 30
0.0
 11
38.2037194169742
 21
159.5328715776574
 31
0.0
  0
LINE
  5
11B
330
1F
100
AcDbEntity
  8
Sichtbare_Kanten_TC_020513_DIN_
  6
Continuous
 62
     7
100
AcDbLine
 10
52.5036414492244
 20
153.1104942152423
 30
0.0
 11
54.43549310180259
 21
153.1104942152423
 31
0.0
  0
LINE
  5
11C
330
1F
100
AcDbEntity
  8
Sichtbare_Kanten_TC_020513_DIN_
  6
Continuous
 62
     7
100
AcDbLine
 10
54.43549310180259
 20
151.7104942152423
 30
0.0
 11
52.5036414492244
 21
151.7104942152423
 31
0.0
  0
LINE
  5
11D
330
1F
100
AcDbEntity
  8
Sichtbare_Kanten_TC_020513_DIN_
  6
Continuous
 62
     7
100
AcDbLine
 10
51.18150634249201
 20
151.7104942152423
 30
0.0
 11
52.5036414492244
 21
151.7104942152423
 31
0.0
  0
LINE
  5
11E
330
1F
100
AcDbEntity
  8
Sichtbare_Kanten_TC_020513_DIN_
  6
Continuous
 62
     7
100
AcDbLine
 10
52.5036414492244
 20
153.1104942152423
 30
0.0
 11
51.18150634249201
 21
153.1104942152423
 31
0.0
  0
LINE
  5
11F
330
1F
100
AcDbEntity
  8
Sichtbare_Kanten_TC_020513_DIN_
  6
Continuous
 62
     7
100
AcDbLine
 10
36.7037194169742
 20
124.2952166626493
 30
0.0
 11
36.46973084555839
 21
124.2952166626493
 31
0.0
  0
LINE
  5
120
330
1F
100
AcDbEntity
  8
Sichtbare_Kanten_TC_020513_DIN_
  6
Continuous
 62
     7
100
AcDbLine
 10
34.80371941697416
 20
124.2952166626493
 30
0.0
 11
34.26606450196681
 21
124.2952166626493
 31
0.0
  0
LINE
  5
121
330
1F
100
AcDbEntity
  8
Sichtbare_Kanten_TC_020513_DIN_
  6
Continuous
 62
     7
100
AcDbLine
 10
34.26606450196681
 20
122.8952166626494
 30
0.0
 11
34.80371941697416
 21
122.8952166626494
 31
0.0
  0
LINE
  5
122
330
1F
100
AcDbEntity
  8
Sichtbare_Kanten_TC_020513_DIN_
  6
Continuous
 62
     7
100
AcDbLine
 10
34.26606450196681
 20
122.8952166626494
 30
0.0
 11
33.76606450196681
 21
122.8952166626494
 31
0.0
  0
LINE
  5
123
330
1F
100
AcDbEntity
  8
Sichtbare_Kanten_TC_020513_DIN_
  6
Continuous
 62
     7
100
AcDbLine
 10
33.76606450196681
 20
124.2952166626493
 30
0.0
 11
34.26606450196681
 21
124.2952166626493
 31
0.0
  0
LINE
  5
124
330
1F
100
AcDbEntity
  8
Sichtbare_Kanten_TC_020513_DIN_
  6
Continuous
 62
     7
100
AcDbLine
 10
33.76606450196681
 20
124.2952166626493
 30
0.0
 11
33.76606450196681
 21
122.8952166626494
 31
0.0
  0
LINE
  5
125
330
1F
100
AcDbEntity
  8
Sichtbare_Kanten_TC_020513_DIN_
  6
Continuous
 62
     7
100
AcDbLine
 10
49.91593706144869
 20
139.1503487512804
 30
0.0
 11
51.54448271425071
 21
133.6419775810313
 31
0.0
  0
LINE
  5
126
330
1F
100
AcDbEntity
  8
Sichtbare_Kanten_TC_020513_DIN_
  6
Continuous
 62
     7
100
AcDbLine
 10
51.54448271425071
 20
134.2336431474683
 30
0.0
 11
49.91593706144869
 21
139.7420143177173
 31
0.0
  0
LINE
  5
127
330
1F
100
AcDbEntity
  8
Sichtbare_Kanten_TC_020513_DIN_
  6
Continuous
 62
     7
100
AcDbLine
 10
145.1719457321458
 20
151.7104942152423
 30
0.0
 11
54.43549310180259
 21
151.7104942152423
 31
0.0
  0
LINE
  5
128
330
1F
100
AcDbEntity
  8
Sichtbare_Kanten_TC_020513_DIN_
  6
Continuous
 62
     7
100
AcDbLine
 10
145.1719457321458
 20
153.1104942152423
 30
0.0
 11
54.43549310180259
 21
153.1104942152423
 31
0.0
  0
LINE
  5
129
330
1F
100
AcDbEntity
  8
Sichtbare_Kanten_TC_020513_DIN_
  6
Continuous
 62
     7
100
AcDbLine
 10
53.47633436682889
 20
132.8901670054143
 30
0.0
 11
146.1311044671198
 21
132.8901670054143
 31
0.0
  0
LINE
  5
12A
330
1F
100
AcDbEntity
  8
Sichtbare_Kanten_TC_020513_DIN_
  6
Continuous
 62
     7
100
AcDbLine
 10
146.1311044671198
 20
132.2985014389773
 30
0.0
 11
53.47633436682878
 21
132.2985014389773
 31
0.0
  0
LINE
  5
12B
330
1F
100
AcDbEntity
  8
Sichtbare_Kanten_TC_020513_DIN_
  6
Continuous
 62
     7
100
AcDbLine
 10
49.91593706144869
 20
139.4816798401643
 30
0.0
 11
49.91593706144869
 21
139.1503487512804
 31
0.0
  0
LINE
  5
12C
330
1F
100
AcDbEntity
  8
Sichtbare_Kanten_TC_020513_DIN_
  6
Continuous
 62
     7
100
AcDbLine
 10
49.91593706144869
 20
139.7420143177173
 30
0.0
 11
49.91593706144869
 21
139.4816798401643
 31
0.0
  0
LINE
  5
12D
330
1F
100
AcDbEntity
  8
Sichtbare_Kanten_TC_020513_DIN_
  6
Continuous
 62
     7
100
AcDbLine
 10
36.80371941697416
 20
141.8938569126523
 30
0.0
 11
36.80371941697416
 21
152.3291131618483
 31
0.0
  0
LINE
  5
12E
330
1F
100
AcDbEntity
  8
Sichtbare_Kanten_TC_020513_DIN_
  6
Continuous
 62
     7
100
AcDbLine
 10
37.5877175041951
 20
152.3291131618483
 30
0.0
 11
38.2037194169742
 21
152.3291131618483
 31
0.0
  0
LINE
  5
12F
330
1F
100
AcDbEntity
  8
Sichtbare_Kanten_TC_020513_DIN_
  6
Continuous
 62
     7
100
AcDbLine
 10
36.80371941697416
 20
152.3291131618483
 30
0.0
 11
37.5877175041951
 21
152.3291131618483
 31
0.0
  0
LINE
  5
130
330
1F
100
AcDbEntity
  8
Sichtbare_Kanten_TC_020513_DIN_
  6
Continuous
 62
     7
100
AcDbLine
 10
39.60371941697417
 20
141.8938569126523
 30
0.0
 11
36.80371941697416
 21
141.8938569126523
 31
0.0
  0
LINE
  5
131
330
1F
100
AcDbEntity
  8
Sichtbare_Kanten_TC_020513_DIN_
  6
Continuous
 62
     7
100
AcDbLine
 10
37.23465888863069
 20
151.8938569126523
 30
0.0
 11
39.60371941697417
 21
151.8938569126523
 31
0.0
  0
LINE
  5
132
330
1F
100
AcDbEntity
  8
Sichtbare_Kanten_TC_020513_DIN_
  6
Continuous
 62
     7
100
AcDbLine
 10
51.18150634249201
 20
152.3264953455243
 30
0.0
 11
51.18150634249201
 21
151.7104942152423
 31
0.0
  0
LINE
  5
133
330
1F
100
AcDbEntity
  8
Sichtbare_Kanten_TC_020513_DIN_
  6
Continuous
 62
     7
100
AcDbLine
 10
51.18150634249201
 20
153.1104942152423
 30
0.0
 11
51.18150634249201
 21
152.3264953455243
 31
0.0
  0
LINE
  5
134
330
1F
100
AcDbEntity
  8
Sichtbare_Kanten_TC_020513_DIN_
  6
Continuous
 62
     7
100
AcDbLine
 10
148.4259324914568
 20
152.3264953455243
 30
0.0
 11
148.4259324914568
 21
153.1104942152423
 31
0.0
  0
LINE
  5
135
330
1F
100
AcDbEntity
  8
Sichtbare_Kanten_TC_020513_DIN_
  6
Continuous
 62
     7
100
AcDbLine
 10
148.4259324914568
 20
151.7104942152423
 30
0.0
 11
148.4259324914568
 21
152.3264953455243
 31
0.0
  0
LINE
  5
136
330
1F
100
AcDbEntity
  8
Sichtbare_Kanten_TC_020513_DIN_
  6
Continuous
 62
     7
100
AcDbLine
 10
149.6915017724998
 20
139.4816798401633
 30
0.0
 11
149.6915017724998
 21
139.7420143177173
 31
0.0
  0
LINE
  5
137
330
1F
100
AcDbEntity
  8
Sichtbare_Kanten_TC_020513_DIN_
  6
Continuous
 62
     7
100
AcDbLine
 10
149.6915017724998
 20
139.1503487512804
 30
0.0
 11
149.6915017724998
 21
139.4816798401633
 31
0.0
  0
LINE
  5
138
330
1F
100
AcDbEntity
  8
Sichtbare_Kanten_TC_020513_DIN_
  6
Continuous
 62
     7
100
AcDbLine
 10
162.0197213297528
 20
152.3291131618483
 30
0.0
 11
162.8037194169738
 21
152.3291131618483
 31
0.0
  0
LINE
  5
139
330
1F
100
AcDbEntity
  8
Sichtbare_Kanten_TC_020513_DIN_
  6
Continuous
 62
     7
100
AcDbLine
 10
161.4037194169738
 20
152.3291131618483
 30
0.0
 11
162.0197213297528
 21
152.3291131618483
 31
0.0
  0
LINE
  5
13A
330
1F
100
AcDbEntity
  8
Sichtbare_Kanten_TC_020513_DIN_
  6
Continuous
 62
     7
100
AcDbLine
 10
160.0037194169738
 20
151.8938569126523
 30
0.0
 11
162.3727799453178
 21
151.8938569126523
 31
0.0
  0
LINE
  5
13B
330
1F
100
AcDbEntity
  8
Sichtbare_Kanten_TC_020513_DIN_
  6
Continuous
 62
     7
100
AcDbLine
 10
162.8037194169738
 20
141.8938569126523
 30
0.0
 11
160.0037194169738
 21
141.8938569126523
 31
0.0
  0
LINE
  5
13C
330
1F
100
AcDbEntity
  8
Sichtbare_Kanten_TC_020513_DIN_
  6
Continuous
 62
     7
100
AcDbLine
 10
162.8037194169738
 20
152.3291131618483
 30
0.0
 11
162.8037194169738
 21
141.8938569126523
 31
0.0
  0
LINE
  5
13D
330
1F
100
AcDbEntity
  8
Sichtbare_Kanten_TC_020513_DIN_
  6
Continuous
 62
     7
100
AcDbLine
 10
27.80371941697416
 20
97.92287157765733
 30
0.0
 11
27.80371941697416
 21
82.53287157765689
 31
0.0
  0
LINE
  5
13E
330
1F
100
AcDbEntity
  8
Sichtbare_Kanten_TC_020513_DIN_
  6
Continuous
 62
     7
100
AcDbLine
 10
27.80371941697416
 20
97.92287157765733
 30
0.0
 11
27.80371941697416
 21
113.0628715776573
 31
0.0
  0
LINE
  5
13F
330
1F
100
AcDbEntity
  8
Sichtbare_Kanten_TC_020513_DIN_
  6
Continuous
 62
     7
100
AcDbLine
 10
39.55371941697416
 20
113.0628715776573
 30
0.0
 11
27.80371941697416
 21
113.0628715776573
 31
0.0
  0
LINE
  5
140
330
1F
100
AcDbEntity
  8
Sichtbare_Kanten_TC_020513_DIN_
  6
Continuous
 62
     7
100
AcDbLine
 10
171.8037194169738
 20
78.53287157765689
 30
0.0
 11
162.8037194169738
 21
78.53287157765689
 31
0.0
  0
LINE
  5
141
330
1F
100
AcDbEntity
  8
Sichtbare_Kanten_TC_020513_DIN_
  6
Continuous
 62
     7
100
AcDbLine
 10
162.8037194169738
 20
78.53287157765689
 30
0.0
 11
152.8037194169738
 21
78.53287157765689
 31
0.0
  0
LINE
  5
142
330
1F
100
AcDbEntity
  8
Sichtbare_Kanten_TC_020513_DIN_
  6
Continuous
 62
     7
100
AcDbLine
 10
152.8037194169738
 20
78.53287157765689
 30
0.0
 11
46.80371941697416
 21
78.53287157765689
 31
0.0
  0
LINE
  5
143
330
1F
100
AcDbEntity
  8
Sichtbare_Kanten_TC_020513_DIN_
  6
Continuous
 62
     7
100
AcDbLine
 10
46.80371941697416
 20
78.53287157765689
 30
0.0
 11
36.80371941697416
 21
78.53287157765689
 31
0.0
  0
LINE
  5
144
330
1F
100
AcDbEntity
  8
Sichtbare_Kanten_TC_020513_DIN_
  6
Continuous
 62
     7
100
AcDbLine
 10
36.80371941697416
 20
78.53287157765689
 30
0.0
 11
27.80371941697416
 21
78.53287157765689
 31
0.0
  0
LINE
  5
145
330
1F
100
AcDbEntity
  8
Sichtbare_Kanten_TC_020513_DIN_
  6
Continuous
 62
     7
100
AcDbLine
 10
36.80371941697416
 20
82.53287157765689
 30
0.0
 11
27.80371941697416
 21
82.53287157765689
 31
0.0
  0
LINE
  5
146
330
1F
100
AcDbEntity
  8
Sichtbare_Kanten_TC_020513_DIN_
  6
Continuous
 62
     7
100
AcDbLine
 10
46.80371941697416
 20
82.53287157765689
 30
0.0
 11
36.80371941697416
 21
82.53287157765689
 31
0.0
  0
LINE
  5
147
330
1F
100
AcDbEntity
  8
Sichtbare_Kanten_TC_020513_DIN_
  6
Continuous
 62
     7
100
AcDbLine
 10
171.8037194169738
 20
78.53287157765689
 30
0.0
 11
171.8037194169738
 21
82.53287157765689
 31
0.0
  0
LINE
  5
148
330
1F
100
AcDbEntity
  8
Sichtbare_Kanten_TC_020513_DIN_
  6
Continuous
 62
     7
100
AcDbLine
 10
162.8037194169738
 20
82.53287157765689
 30
0.0
 11
152.8037194169738
 21
82.53287157765689
 31
0.0
  0
LINE
  5
149
330
1F
100
AcDbEntity
  8
Sichtbare_Kanten_TC_020513_DIN_
  6
Continuous
 62
     7
100
AcDbLine
 10
171.8037194169738
 20
82.53287157765689
 30
0.0
 11
162.8037194169738
 21
82.53287157765689
 31
0.0
  0
LINE
  5
14A
330
1F
100
AcDbEntity
  8
Sichtbare_Kanten_TC_020513_DIN_
  6
Continuous
 62
     7
100
AcDbLine
 10
162.8037194169738
 20
78.53287157765689
 30
0.0
 11
162.8037194169738
 21
82.53287157765689
 31
0.0
  0
LINE
  5
14B
330
1F
100
AcDbEntity
  8
Sichtbare_Kanten_TC_020513_DIN_
  6
Continuous
 62
     7
100
AcDbLine
 10
152.8037194169738
 20
78.53287157765689
 30
0.0
 11
152.8037194169738
 21
82.53287157765689
 31
0.0
  0
LINE
  5
14C
330
1F
100
AcDbEntity
  8
Sichtbare_Kanten_TC_020513_DIN_
  6
Continuous
 62
     7
100
AcDbLine
 10
46.80371941697416
 20
78.53287157765689
 30
0.0
 11
46.80371941697416
 21
82.53287157765689
 31
0.0
  0
LINE
  5
14D
330
1F
100
AcDbEntity
  8
Sichtbare_Kanten_TC_020513_DIN_
  6
Continuous
 62
     7
100
AcDbLine
 10
36.80371941697416
 20
78.53287157765689
 30
0.0
 11
36.80371941697416
 21
82.53287157765689
 31
0.0
  0
LINE
  5
14E
330
1F
100
AcDbEntity
  8
Sichtbare_Kanten_TC_020513_DIN_
  6
Continuous
 62
     7
100
AcDbLine
 10
27.80371941697416
 20
78.53287157765689
 30
0.0
 11
27.80371941697416
 21
82.53287157765689
 31
0.0
  0
LINE
  5
14F
330
1F
100
AcDbEntity
  8
Sichtbare_Kanten_TC_020513_DIN_
  6
Continuous
 62
     7
100
AcDbLine
 10
171.8037194169738
 20
97.92287157765733
 30
0.0
 11
171.8037194169738
 21
113.0628715776573
 31
0.0
  0
LINE
  5
150
330
1F
100
AcDbEntity
  8
Sichtbare_Kanten_TC_020513_DIN_
  6
Continuous
 62
     7
100
AcDbLine
 10
171.8037194169738
 20
97.92287157765733
 30
0.0
 11
171.8037194169738
 21
82.53287157765689
 31
0.0
  0
LINE
  5
151
330
1F
100
AcDbEntity
  8
Sichtbare_Kanten_TC_020513_DIN_
  6
Continuous
 62
     7
100
AcDbLine
 10
171.8037194169738
 20
113.0628715776573
 30
0.0
 11
160.0537194169738
 21
113.0628715776573
 31
0.0
  0
LINE
  5
152
330
1F
100
AcDbEntity
  8
Sichtbare_Kanten_TC_020513_DIN_
  6
Continuous
 62
     7
100
AcDbLine
 10
160.0537194169738
 20
82.53287157765689
 30
0.0
 11
160.0537194169738
 21
122.3162342750663
 31
0.0
  0
LINE
  5
153
330
1F
100
AcDbEntity
  8
Sichtbare_Kanten_TC_020513_DIN_
  6
Continuous
 62
     7
100
AcDbLine
 10
160.0537194169738
 20
123.7162342750663
 30
0.0
 11
160.0537194169738
 21
137.5328715776574
 31
0.0
  0
LINE
  5
154
330
1F
100
AcDbEntity
  8
Sichtbare_Kanten_TC_020513_DIN_
  6
Continuous
 62
     7
100
AcDbLine
 10
39.55371941697416
 20
82.53287157765689
 30
0.0
 11
39.55371941697416
 21
122.3162342750663
 31
0.0
  0
LINE
  5
155
330
1F
100
AcDbEntity
  8
Sichtbare_Kanten_TC_020513_DIN_
  6
Continuous
 62
     7
100
AcDbLine
 10
39.55371941697416
 20
123.7162342750663
 30
0.0
 11
39.55371941697416
 21
137.5328715776574
 31
0.0
  0
LINE
  5
156
330
1F
100
AcDbEntity
  8
Sichtbare_Kanten_TC_020513_DIN_
  6
Continuous
 62
     7
100
AcDbLine
 10
39.55371941697416
 20
137.5328715776574
 30
0.0
 11
45.55371941697416
 21
137.5328715776574
 31
0.0
  0
LINE
  5
157
330
1F
100
AcDbEntity
  8
Sichtbare_Kanten_TC_020513_DIN_
  6
Continuous
 62
     7
100
AcDbLine
 10
154.0537194169738
 20
137.5328715776574
 30
0.0
 11
160.0537194169738
 21
137.5328715776574
 31
0.0
  0
LINE
  5
158
330
1F
100
AcDbEntity
  8
Sichtbare_Kanten_TC_020513_DIN_
  6
Continuous
 62
     7
100
AcDbLine
 10
154.0537194169738
 20
137.5328715776574
 30
0.0
 11
149.2132959039778
 21
137.5328715776574
 31
0.0
  0
LINE
  5
159
330
1F
100
AcDbEntity
  8
Sichtbare_Kanten_TC_020513_DIN_
  6
Continuous
 62
     7
100
AcDbLine
 10
50.39414292997088
 20
137.5328715776574
 30
0.0
 11
45.55371941697416
 21
137.5328715776574
 31
0.0
  0
LINE
  5
15A
330
1F
100
AcDbEntity
  8
Sichtbare_Kanten_TC_020513_DIN_
  6
Continuous
 62
     7
100
AcDbLine
 10
39.75371941697421
 20
141.5328715776574
 30
0.0
 11
39.75371941697421
 21
137.5328715776574
 31
0.0
  0
LINE
  5
15B
330
1F
100
AcDbEntity
  8
Sichtbare_Kanten_TC_020513_DIN_
  6
Continuous
 62
     7
100
AcDbLine
 10
45.55371941697416
 20
141.5328715776574
 30
0.0
 11
39.75371941697421
 21
141.5328715776574
 31
0.0
  0
LINE
  5
15C
330
1F
100
AcDbEntity
  8
Sichtbare_Kanten_TC_020513_DIN_
  6
Continuous
 62
     7
100
AcDbLine
 10
45.55371941697416
 20
141.5328715776574
 30
0.0
 11
49.35891419555111
 21
141.5328715776574
 31
0.0
  0
LINE
  5
15D
330
1F
100
AcDbEntity
  8
Sichtbare_Kanten_TC_020513_DIN_
  6
Continuous
 62
     7
100
AcDbLine
 10
150.2485246383968
 20
141.5328715776574
 30
0.0
 11
154.0537194169738
 21
141.5328715776574
 31
0.0
  0
LINE
  5
15E
330
1F
100
AcDbEntity
  8
Sichtbare_Kanten_TC_020513_DIN_
  6
Continuous
 62
     7
100
AcDbLine
 10
159.8537194169738
 20
141.5328715776574
 30
0.0
 11
159.8537194169738
 21
137.5328715776574
 31
0.0
  0
LINE
  5
15F
330
1F
100
AcDbEntity
  8
Sichtbare_Kanten_TC_020513_DIN_
  6
Continuous
 62
     7
100
AcDbLine
 10
159.8537194169738
 20
141.5328715776574
 30
0.0
 11
154.0537194169738
 21
141.5328715776574
 31
0.0
  0
LINE
  5
160
330
1F
100
AcDbEntity
  8
Sichtbare_Kanten_TC_020513_DIN_
  6
Continuous
 62
     7
100
AcDbLine
 10
39.46371941697419
 20
132.0328715776574
 30
0.0
 11
39.46371941697419
 21
137.0328715776574
 31
0.0
  0
LINE
  5
161
330
1F
100
AcDbEntity
  8
Sichtbare_Kanten_TC_020513_DIN_
  6
Continuous
 62
     7
100
AcDbLine
 10
34.2037194169742
 20
130.5328715776574
 30
0.0
 11
34.2037194169742
 21
138.5328715776574
 31
0.0
  0
LINE
  5
162
330
1F
100
AcDbEntity
  8
Sichtbare_Kanten_TC_020513_DIN_
  6
Continuous
 62
     7
100
AcDbLine
 10
32.80371941697416
 20
130.5328715776574
 30
0.0
 11
32.80371941697416
 21
138.5328715776574
 31
0.0
  0
LINE
  5
163
330
1F
100
AcDbEntity
  8
Sichtbare_Kanten_TC_020513_DIN_
  6
Continuous
 62
     7
100
AcDbLine
 10
39.46371941697419
 20
136.0328715776574
 30
0.0
 11
39.55371941697416
 21
136.0328715776574
 31
0.0
  0
LINE
  5
164
330
1F
100
AcDbEntity
  8
Sichtbare_Kanten_TC_020513_DIN_
  6
Continuous
 62
     7
100
AcDbLine
 10
39.46371941697419
 20
133.0328715776574
 30
0.0
 11
39.55371941697416
 21
133.0328715776574
 31
0.0
  0
LINE
  5
165
330
1F
100
AcDbEntity
  8
Sichtbare_Kanten_TC_020513_DIN_
  6
Continuous
 62
     7
100
AcDbLine
 10
34.2037194169742
 20
137.0328715776574
 30
0.0
 11
34.80371941697416
 21
137.0328715776574
 31
0.0
  0
LINE
  5
166
330
1F
100
AcDbEntity
  8
Sichtbare_Kanten_TC_020513_DIN_
  6
Continuous
 62
     7
100
AcDbLine
 10
34.2037194169742
 20
132.0328715776574
 30
0.0
 11
34.80371941697416
 21
132.0328715776574
 31
0.0
  0
LINE
  5
167
330
1F
100
AcDbEntity
  8
Sichtbare_Kanten_TC_020513_DIN_
  6
Continuous
 62
     7
100
AcDbLine
 10
36.2037194169742
 20
137.0328715776574
 30
0.0
 11
36.80371941697416
 21
137.0328715776574
 31
0.0
  0
LINE
  5
168
330
1F
100
AcDbEntity
  8
Sichtbare_Kanten_TC_020513_DIN_
  6
Continuous
 62
     7
100
AcDbLine
 10
38.2037194169742
 20
137.0328715776574
 30
0.0
 11
39.46371941697419
 21
137.0328715776574
 31
0.0
  0
LINE
  5
169
330
1F
100
AcDbEntity
  8
Sichtbare_Kanten_TC_020513_DIN_
  6
Continuous
 62
     7
100
AcDbLine
 10
36.2037194169742
 20
132.0328715776574
 30
0.0
 11
36.80371941697416
 21
132.0328715776574
 31
0.0
  0
LINE
  5
16A
330
1F
100
AcDbEntity
  8
Sichtbare_Kanten_TC_020513_DIN_
  6
Continuous
 62
     7
100
AcDbLine
 10
38.2037194169742
 20
132.0328715776574
 30
0.0
 11
39.46371941697419
 21
132.0328715776574
 31
0.0
  0
LINE
  5
16B
330
1F
100
AcDbEntity
  8
Sichtbare_Kanten_TC_020513_DIN_
  6
Continuous
 62
     7
100
AcDbLine
 10
160.1437194169738
 20
132.0328715776574
 30
0.0
 11
160.1437194169738
 21
137.0328715776574
 31
0.0
  0
LINE
  5
16C
330
1F
100
AcDbEntity
  8
Sichtbare_Kanten_TC_020513_DIN_
  6
Continuous
 62
     7
100
AcDbLine
 10
165.4037194169738
 20
130.5328715776574
 30
0.0
 11
165.4037194169738
 21
138.5328715776574
 31
0.0
  0
LINE
  5
16D
330
1F
100
AcDbEntity
  8
Sichtbare_Kanten_TC_020513_DIN_
  6
Continuous
 62
     7
100
AcDbLine
 10
166.8037194169738
 20
130.5328715776574
 30
0.0
 11
166.8037194169738
 21
138.5328715776574
 31
0.0
  0
LINE
  5
16E
330
1F
100
AcDbEntity
  8
Sichtbare_Kanten_TC_020513_DIN_
  6
Continuous
 62
     7
100
AcDbLine
 10
160.0537194169738
 20
136.0328715776574
 30
0.0
 11
160.1437194169738
 21
136.0328715776574
 31
0.0
  0
LINE
  5
16F
330
1F
100
AcDbEntity
  8
Sichtbare_Kanten_TC_020513_DIN_
  6
Continuous
 62
     7
100
AcDbLine
 10
160.0537194169738
 20
133.0328715776574
 30
0.0
 11
160.1437194169738
 21
133.0328715776574
 31
0.0
  0
LINE
  5
170
330
1F
100
AcDbEntity
  8
Sichtbare_Kanten_TC_020513_DIN_
  6
Continuous
 62
     7
100
AcDbLine
 10
164.8037194169738
 20
137.0328715776574
 30
0.0
 11
165.4037194169738
 21
137.0328715776574
 31
0.0
  0
LINE
  5
171
330
1F
100
AcDbEntity
  8
Sichtbare_Kanten_TC_020513_DIN_
  6
Continuous
 62
     7
100
AcDbLine
 10
164.8037194169738
 20
132.0328715776574
 30
0.0
 11
165.4037194169738
 21
132.0328715776574
 31
0.0
  0
LINE
  5
172
330
1F
100
AcDbEntity
  8
Sichtbare_Kanten_TC_020513_DIN_
  6
Continuous
 62
     7
100
AcDbLine
 10
160.1437194169738
 20
137.0328715776574
 30
0.0
 11
161.4037194169738
 21
137.0328715776574
 31
0.0
  0
LINE
  5
173
330
1F
100
AcDbEntity
  8
Sichtbare_Kanten_TC_020513_DIN_
  6
Continuous
 62
     7
100
AcDbLine
 10
162.8037194169738
 20
137.0328715776574
 30
0.0
 11
163.4037194169738
 21
137.0328715776574
 31
0.0
  0
LINE
  5
174
330
1F
100
AcDbEntity
  8
Sichtbare_Kanten_TC_020513_DIN_
  6
Continuous
 62
     7
100
AcDbLine
 10
160.1437194169738
 20
132.0328715776574
 30
0.0
 11
161.4037194169738
 21
132.0328715776574
 31
0.0
  0
LINE
  5
175
330
1F
100
AcDbEntity
  8
Sichtbare_Kanten_TC_020513_DIN_
  6
Continuous
 62
     7
100
AcDbLine
 10
162.8037194169738
 20
132.0328715776574
 30
0.0
 11
163.4037194169738
 21
132.0328715776574
 31
0.0
  0
LINE
  5
176
330
1F
100
AcDbEntity
  8
Sichtbare_Kanten_TC_020513_DIN_
  6
Continuous
 62
     7
100
AcDbLine
 10
109.5870821143838
 20
122.2961001408513
 30
0.0
 11
109.5870821143838
 21
122.2162342750663
 31
0.0
  0
LINE
  5
177
330
1F
100
AcDbEntity
  8
Sichtbare_Kanten_TC_020513_DIN_
  6
Continuous
 62
     7
100
AcDbLine
 10
152.0870821143838
 20
122.2162342750663
 30
0.0
 11
152.0870821143838
 21
122.3162342750663
 31
0.0
  0
LINE
  5
178
330
1F
100
AcDbEntity
  8
Sichtbare_Kanten_TC_020513_DIN_
  6
Continuous
 62
     7
100
AcDbLine
 10
47.52035671956486
 20
122.3162342750663
 30
0.0
 11
47.52035671956486
 21
122.2162342750663
 31
0.0
  0
LINE
  5
179
330
1F
100
AcDbEntity
  8
Sichtbare_Kanten_TC_020513_DIN_
  6
Continuous
 62
     7
100
AcDbLine
 10
90.02035671956486
 20
122.2162342750663
 30
0.0
 11
90.02035671956486
 21
122.2961001408513
 31
0.0
  0
LINE
  5
17A
330
1F
100
AcDbEntity
  8
Sichtbare_Kanten_TC_020513_DIN_
  6
Continuous
 62
     7
100
AcDbLine
 10
152.0870821143838
 20
121.3785793600583
 30
0.0
 11
110.0870821143838
 21
121.3785793600583
 31
0.0
  0
LINE
  5
17B
330
1F
100
AcDbEntity
  8
Sichtbare_Kanten_TC_020513_DIN_
  6
Continuous
 62
     7
100
AcDbLine
 10
109.5870821143838
 20
121.8785793600583
 30
0.0
 11
109.5870821143838
 21
122.2162342750663
 31
0.0
  0
LINE
  5
17C
330
1F
100
AcDbEntity
  8
Sichtbare_Kanten_TC_020513_DIN_
  6
Continuous
 62
     7
100
AcDbLine
 10
152.0870821143838
 20
122.2162342750663
 30
0.0
 11
152.0870821143838
 21
121.3785793600583
 31
0.0
  0
LINE
  5
17D
330
1F
100
AcDbEntity
  8
Sichtbare_Kanten_TC_020513_DIN_
  6
Continuous
 62
     7
100
AcDbLine
 10
163.4037194169738
 20
125.1162342750663
 30
0.0
 11
163.4037194169738
 21
127.5328715776574
 31
0.0
  0
LINE
  5
17E
330
1F
100
AcDbEntity
  8
Sichtbare_Kanten_TC_020513_DIN_
  6
Continuous
 62
     7
100
AcDbLine
 10
163.4037194169738
 20
135.5328715776574
 30
0.0
 11
163.4037194169738
 21
127.5328715776574
 31
0.0
  0
LINE
  5
17F
330
1F
100
AcDbEntity
  8
Sichtbare_Kanten_TC_020513_DIN_
  6
Continuous
 62
     7
100
AcDbLine
 10
163.4037194169738
 20
135.5328715776574
 30
0.0
 11
163.4037194169738
 21
135.7112838275643
 31
0.0
  0
LINE
  5
180
330
1F
100
AcDbEntity
  8
Sichtbare_Kanten_TC_020513_DIN_
  6
Continuous
 62
     7
100
AcDbLine
 10
163.4037194169738
 20
140.8248472912364
 30
0.0
 11
163.4037194169738
 21
135.7112838275643
 31
0.0
  0
LINE
  5
181
330
1F
100
AcDbEntity
  8
Sichtbare_Kanten_TC_020513_DIN_
  6
Continuous
 62
     7
100
AcDbLine
 10
163.4037194169738
 20
141.5328715776574
 30
0.0
 11
163.4037194169738
 21
140.8248472912364
 31
0.0
  0
LINE
  5
182
330
1F
100
AcDbEntity
  8
Sichtbare_Kanten_TC_020513_DIN_
  6
Continuous
 62
     7
100
AcDbLine
 10
163.4037194169738
 20
122.6913631444693
 30
0.0
 11
163.4037194169738
 21
119.7989311530513
 31
0.0
  0
LINE
  5
183
330
1F
100
AcDbEntity
  8
Sichtbare_Kanten_TC_020513_DIN_
  6
Continuous
 62
     7
100
AcDbLine
 10
164.8037194169738
 20
125.1162342750663
 30
0.0
 11
164.8037194169738
 21
119.7989311530513
 31
0.0
  0
LINE
  5
184
330
1F
100
AcDbEntity
  8
Sichtbare_Kanten_TC_020513_DIN_
  6
Continuous
 62
     7
100
AcDbLine
 10
164.8037194169738
 20
141.5328715776574
 30
0.0
 11
164.8037194169738
 21
140.8248472912364
 31
0.0
  0
LINE
  5
185
330
1F
100
AcDbEntity
  8
Sichtbare_Kanten_TC_020513_DIN_
  6
Continuous
 62
     7
100
AcDbLine
 10
164.8037194169738
 20
140.8248472912364
 30
0.0
 11
164.8037194169738
 21
135.7112838275643
 31
0.0
  0
LINE
  5
186
330
1F
100
AcDbEntity
  8
Sichtbare_Kanten_TC_020513_DIN_
  6
Continuous
 62
     7
100
AcDbLine
 10
164.8037194169738
 20
135.5328715776574
 30
0.0
 11
164.8037194169738
 21
135.7112838275643
 31
0.0
  0
LINE
  5
187
330
1F
100
AcDbEntity
  8
Sichtbare_Kanten_TC_020513_DIN_
  6
Continuous
 62
     7
100
AcDbLine
 10
164.8037194169738
 20
135.5328715776574
 30
0.0
 11
164.8037194169738
 21
127.5328715776574
 31
0.0
  0
LINE
  5
188
330
1F
100
AcDbEntity
  8
Sichtbare_Kanten_TC_020513_DIN_
  6
Continuous
 62
     7
100
AcDbLine
 10
164.8037194169738
 20
125.1162342750663
 30
0.0
 11
164.8037194169738
 21
127.5328715776574
 31
0.0
  0
LINE
  5
189
330
1F
100
AcDbEntity
  8
Sichtbare_Kanten_TC_020513_DIN_
  6
Continuous
 62
     7
100
AcDbLine
 10
164.8037194169738
 20
135.5328715776574
 30
0.0
 11
163.4037194169738
 21
135.5328715776574
 31
0.0
  0
LINE
  5
18A
330
1F
100
AcDbEntity
  8
Sichtbare_Kanten_TC_020513_DIN_
  6
Continuous
 62
     7
100
AcDbLine
 10
158.0870821143838
 20
123.7162342750663
 30
0.0
 11
162.0037194169738
 21
123.7162342750663
 31
0.0
  0
LINE
  5
18B
330
1F
100
AcDbEntity
  8
Sichtbare_Kanten_TC_020513_DIN_
  6
Continuous
 62
     7
100
AcDbLine
 10
158.0870821143838
 20
122.3162342750663
 30
0.0
 11
162.0037194169738
 21
122.3162342750663
 31
0.0
  0
LINE
  5
18C
330
1F
100
AcDbEntity
  8
Sichtbare_Kanten_TC_020513_DIN_
  6
Continuous
 62
     7
100
AcDbLine
 10
157.2955372894518
 20
123.7162342750663
 30
0.0
 11
158.0870821143838
 21
123.7162342750663
 31
0.0
  0
LINE
  5
18D
330
1F
100
AcDbEntity
  8
Sichtbare_Kanten_TC_020513_DIN_
  6
Continuous
 62
     7
100
AcDbLine
 10
157.2955372894518
 20
122.3162342750663
 30
0.0
 11
158.0870821143838
 21
122.3162342750663
 31
0.0
  0
LINE
  5
18E
330
1F
100
AcDbEntity
  8
Sichtbare_Kanten_TC_020513_DIN_
  6
Continuous
 62
     7
100
AcDbLine
 10
157.2955372894518
 20
123.7162342750663
 30
0.0
 11
150.9631786899958
 21
123.7162342750663
 31
0.0
  0
LINE
  5
18F
330
1F
100
AcDbEntity
  8
Sichtbare_Kanten_TC_020513_DIN_
  6
Continuous
 62
     7
100
AcDbLine
 10
157.2955372894518
 20
122.3162342750663
 30
0.0
 11
150.9631786899958
 21
122.3162342750663
 31
0.0
  0
LINE
  5
190
330
1F
100
AcDbEntity
  8
Sichtbare_Kanten_TC_020513_DIN_
  6
Continuous
 62
     7
100
AcDbLine
 10
163.4037194169738
 20
119.7989311530513
 30
0.0
 11
164.8037194169738
 21
119.7989311530513
 31
0.0
  0
LINE
  5
191
330
1F
100
AcDbEntity
  8
Sichtbare_Kanten_TC_020513_DIN_
  6
Continuous
 62
     7
100
AcDbLine
 10
163.4037194169738
 20
141.5328715776574
 30
0.0
 11
164.8037194169738
 21
141.5328715776574
 31
0.0
  0
LINE
  5
192
330
1F
100
AcDbEntity
  8
Sichtbare_Kanten_TC_020513_DIN_
  6
Continuous
 62
     7
100
AcDbLine
 10
150.9631786899958
 20
122.3162342750663
 30
0.0
 11
48.64426014395241
 21
122.3162342750663
 31
0.0
  0
LINE
  5
193
330
1F
100
AcDbEntity
  8
Sichtbare_Kanten_TC_020513_DIN_
  6
Continuous
 62
     7
100
AcDbLine
 10
42.31190154449689
 20
122.3162342750663
 30
0.0
 11
48.64426014395241
 21
122.3162342750663
 31
0.0
  0
LINE
  5
194
330
1F
100
AcDbEntity
  8
Sichtbare_Kanten_TC_020513_DIN_
  6
Continuous
 62
     7
100
AcDbLine
 10
42.31190154449689
 20
122.3162342750663
 30
0.0
 11
41.52035671956486
 21
122.3162342750663
 31
0.0
  0
LINE
  5
195
330
1F
100
AcDbEntity
  8
Sichtbare_Kanten_TC_020513_DIN_
  6
Continuous
 62
     7
100
AcDbLine
 10
41.52035671956486
 20
122.3162342750663
 30
0.0
 11
37.60371941697417
 21
122.3162342750663
 31
0.0
  0
LINE
  5
196
330
1F
100
AcDbEntity
  8
Sichtbare_Kanten_TC_020513_DIN_
  6
Continuous
 62
     7
100
AcDbLine
 10
150.9631786899958
 20
123.7162342750663
 30
0.0
 11
48.64426014395241
 21
123.7162342750663
 31
0.0
  0
LINE
  5
197
330
1F
100
AcDbEntity
  8
Sichtbare_Kanten_TC_020513_DIN_
  6
Continuous
 62
     7
100
AcDbLine
 10
47.52035671956486
 20
121.3785793600593
 30
0.0
 11
89.52035671956486
 21
121.3785793600583
 31
0.0
  0
LINE
  5
198
330
1F
100
AcDbEntity
  8
Sichtbare_Kanten_TC_020513_DIN_
  6
Continuous
 62
     7
100
AcDbLine
 10
90.02035671956486
 20
121.8785793600583
 30
0.0
 11
90.02035671956486
 21
122.2162342750663
 31
0.0
  0
LINE
  5
199
330
1F
100
AcDbEntity
  8
Sichtbare_Kanten_TC_020513_DIN_
  6
Continuous
 62
     7
100
AcDbLine
 10
47.52035671956486
 20
122.2162342750663
 30
0.0
 11
47.52035671956486
 21
121.3785793600593
 31
0.0
  0
LINE
  5
19A
330
1F
100
AcDbEntity
  8
Sichtbare_Kanten_TC_020513_DIN_
  6
Continuous
 62
     7
100
AcDbLine
 10
41.52035671956486
 20
123.7162342750663
 30
0.0
 11
37.60371941697417
 21
123.7162342750663
 31
0.0
  0
LINE
  5
19B
330
1F
100
AcDbEntity
  8
Sichtbare_Kanten_TC_020513_DIN_
  6
Continuous
 62
     7
100
AcDbLine
 10
42.31190154449689
 20
123.7162342750663
 30
0.0
 11
41.52035671956486
 21
123.7162342750663
 31
0.0
  0
LINE
  5
19C
330
1F
100
AcDbEntity
  8
Sichtbare_Kanten_TC_020513_DIN_
  6
Continuous
 62
     7
100
AcDbLine
 10
42.31190154449689
 20
123.7162342750663
 30
0.0
 11
48.64426014395241
 21
123.7162342750663
 31
0.0
  0
LINE
  5
19D
330
1F
100
AcDbEntity
  8
Sichtbare_Kanten_TC_020513_DIN_
  6
Continuous
 62
     7
100
AcDbLine
 10
36.2037194169742
 20
122.6913631444693
 30
0.0
 11
36.2037194169742
 21
119.7989311530513
 31
0.0
  0
LINE
  5
19E
330
1F
100
AcDbEntity
  8
Sichtbare_Kanten_TC_020513_DIN_
  6
Continuous
 62
     7
100
AcDbLine
 10
36.2037194169742
 20
141.5328715776574
 30
0.0
 11
36.2037194169742
 21
140.8248472912364
 31
0.0
  0
LINE
  5
19F
330
1F
100
AcDbEntity
  8
Sichtbare_Kanten_TC_020513_DIN_
  6
Continuous
 62
     7
100
AcDbLine
 10
36.2037194169742
 20
140.8248472912364
 30
0.0
 11
36.2037194169742
 21
135.7112838275643
 31
0.0
  0
LINE
  5
1A0
330
1F
100
AcDbEntity
  8
Sichtbare_Kanten_TC_020513_DIN_
  6
Continuous
 62
     7
100
AcDbLine
 10
36.2037194169742
 20
135.5328715776574
 30
0.0
 11
36.2037194169742
 21
135.7112838275643
 31
0.0
  0
LINE
  5
1A1
330
1F
100
AcDbEntity
  8
Sichtbare_Kanten_TC_020513_DIN_
  6
Continuous
 62
     7
100
AcDbLine
 10
36.2037194169742
 20
135.5328715776574
 30
0.0
 11
36.2037194169742
 21
127.5328715776574
 31
0.0
  0
LINE
  5
1A2
330
1F
100
AcDbEntity
  8
Sichtbare_Kanten_TC_020513_DIN_
  6
Continuous
 62
     7
100
AcDbLine
 10
36.2037194169742
 20
125.1162342750663
 30
0.0
 11
36.2037194169742
 21
127.5328715776574
 31
0.0
  0
LINE
  5
1A3
330
1F
100
AcDbEntity
  8
Sichtbare_Kanten_TC_020513_DIN_
  6
Continuous
 62
     7
100
AcDbLine
 10
34.80371941697416
 20
125.1162342750663
 30
0.0
 11
34.80371941697416
 21
127.5328715776574
 31
0.0
  0
LINE
  5
1A4
330
1F
100
AcDbEntity
  8
Sichtbare_Kanten_TC_020513_DIN_
  6
Continuous
 62
     7
100
AcDbLine
 10
34.80371941697416
 20
135.5328715776574
 30
0.0
 11
34.80371941697416
 21
127.5328715776574
 31
0.0
  0
LINE
  5
1A5
330
1F
100
AcDbEntity
  8
Sichtbare_Kanten_TC_020513_DIN_
  6
Continuous
 62
     7
100
AcDbLine
 10
34.80371941697416
 20
135.5328715776574
 30
0.0
 11
34.80371941697416
 21
135.7112838275643
 31
0.0
  0
LINE
  5
1A6
330
1F
100
AcDbEntity
  8
Sichtbare_Kanten_TC_020513_DIN_
  6
Continuous
 62
     7
100
AcDbLine
 10
34.80371941697416
 20
140.8248472912364
 30
0.0
 11
34.80371941697416
 21
135.7112838275643
 31
0.0
  0
LINE
  5
1A7
330
1F
100
AcDbEntity
  8
Sichtbare_Kanten_TC_020513_DIN_
  6
Continuous
 62
     7
100
AcDbLine
 10
34.80371941697416
 20
141.5328715776574
 30
0.0
 11
34.80371941697416
 21
140.8248472912364
 31
0.0
  0
LINE
  5
1A8
330
1F
100
AcDbEntity
  8
Sichtbare_Kanten_TC_020513_DIN_
  6
Continuous
 62
     7
100
AcDbLine
 10
34.80371941697416
 20
125.1162342750663
 30
0.0
 11
34.80371941697416
 21
119.7989311530513
 31
0.0
  0
LINE
  5
1A9
330
1F
100
AcDbEntity
  8
Sichtbare_Kanten_TC_020513_DIN_
  6
Continuous
 62
     7
100
AcDbLine
 10
34.80371941697416
 20
135.5328715776574
 30
0.0
 11
36.2037194169742
 21
135.5328715776574
 31
0.0
  0
LINE
  5
1AA
330
1F
100
AcDbEntity
  8
Sichtbare_Kanten_TC_020513_DIN_
  6
Continuous
 62
     7
100
AcDbLine
 10
34.80371941697416
 20
119.7989311530513
 30
0.0
 11
36.2037194169742
 21
119.7989311530513
 31
0.0
  0
LINE
  5
1AB
330
1F
100
AcDbEntity
  8
Sichtbare_Kanten_TC_020513_DIN_
  6
Continuous
 62
     7
100
AcDbLine
 10
34.80371941697416
 20
141.5328715776574
 30
0.0
 11
36.2037194169742
 21
141.5328715776574
 31
0.0
  0
LINE
  5
1AC
330
1F
100
AcDbEntity
  8
Sichtbare_Kanten_TC_020513_DIN_
  6
Continuous
 62
     7
100
AcDbLine
 10
249.9661209624408
 20
151.8938569126523
 30
0.0
 11
249.9661209624408
 21
141.8938569126523
 31
0.0
  0
LINE
  5
1AD
330
1F
100
AcDbEntity
  8
Sichtbare_Kanten_TC_020513_DIN_
  6
Continuous
 62
     7
100
AcDbLine
 10
249.9661209624408
 20
141.8938569126523
 30
0.0
 11
247.1661209624398
 21
141.8938569126523
 31
0.0
  0
LINE
  5
1AE
330
1F
100
AcDbEntity
  8
Sichtbare_Kanten_TC_020513_DIN_
  6
Continuous
 62
     7
100
AcDbLine
 10
248.6586196100258
 20
151.8938569126523
 30
0.0
 11
249.9661209624408
 21
151.8938569126523
 31
0.0
  0
LINE
  5
1AF
330
1F
100
AcDbEntity
  8
Sichtbare_Kanten_TC_020513_DIN_
  6
Continuous
 62
     7
100
AcDbLine
 10
249.9661209624438
 20
141.7085616739273
 30
0.0
 11
249.9661209624408
 21
141.8938569126523
 31
0.0
  0
LINE
  5
1B0
330
1F
100
AcDbEntity
  8
Sichtbare_Kanten_TC_020513_DIN_
  6
Continuous
 62
     7
100
AcDbLine
 10
249.9661209624438
 20
140.3336798841544
 30
0.0
 11
249.9661209624438
 21
141.7085616739273
 31
0.0
  0
LINE
  5
1B1
330
1F
100
AcDbEntity
  8
Sichtbare_Kanten_TC_020513_DIN_
  6
Continuous
 62
     7
100
AcDbLine
 10
220.1994836598498
 20
124.5328715776574
 30
0.0
 11
220.1994836598498
 21
124.3952166626494
 31
0.0
  0
LINE
  5
1B2
330
1F
100
AcDbEntity
  8
Sichtbare_Kanten_TC_020513_DIN_
  6
Continuous
 62
     7
100
AcDbLine
 10
220.2356243214838
 20
124.5328715776574
 30
0.0
 11
220.1994836598498
 21
124.5328715776574
 31
0.0
  0
LINE
  5
1B3
330
1F
100
AcDbEntity
  8
Sichtbare_Kanten_TC_020513_DIN_
  6
Continuous
 62
     7
100
AcDbLine
 10
231.1876294215687
 20
137.5764494490303
 30
0.0
 11
231.0605290662429
 21
136.1236857399603
 31
0.0
  0
LINE
  5
1B4
330
1F
100
AcDbEntity
  8
Sichtbare_Kanten_TC_020513_DIN_
  6
Continuous
 62
     7
100
AcDbLine
 10
241.4892924876568
 20
145.9250213407493
 30
0.0
 11
231.3755355984218
 21
137.9250213407493
 31
0.0
  0
LINE
  5
1B5
330
1F
100
AcDbEntity
  8
Sichtbare_Kanten_TC_020513_DIN_
  6
Continuous
 62
     7
100
AcDbLine
 10
245.0151841336638
 20
142.2734745682663
 30
0.0
 11
242.1916334229417
 21
145.8430627498493
 31
0.0
  0
LINE
  5
1B6
330
1F
100
AcDbEntity
  8
Sichtbare_Kanten_TC_020513_DIN_
  6
Continuous
 62
     7
100
AcDbLine
 10
247.1661209624398
 20
141.8938569126523
 30
0.0
 11
245.7994836598488
 21
141.8938569126523
 31
0.0
  0
LINE
  5
1B7
330
1F
100
AcDbEntity
  8
Sichtbare_Kanten_TC_020513_DIN_
  6
Continuous
 62
     7
100
AcDbLine
 10
243.8249291862788
 20
154.3763328464473
 30
0.0
 11
247.1661209624398
 21
152.3291131618483
 31
0.0
  0
LINE
  5
1B8
330
1F
100
AcDbEntity
  8
Sichtbare_Kanten_TC_020513_DIN_
  6
Continuous
 62
     7
100
AcDbLine
 10
217.5392019790208
 20
159.5328715776574
 30
0.0
 11
225.5392019790208
 21
159.5328715776574
 31
0.0
  0
LINE
  5
1B9
330
1F
100
AcDbEntity
  8
Sichtbare_Kanten_TC_020513_DIN_
  6
Continuous
 62
     7
100
AcDbLine
 10
227.0864856155188
 20
146.2060818446713
 30
0.0
 11
226.0208406070257
 21
149.0917639807844
 31
0.0
  0
LINE
  5
1BA
330
1F
100
AcDbEntity
  8
Sichtbare_Kanten_TC_020513_DIN_
  6
Continuous
 62
     7
100
AcDbLine
 10
224.7994836598488
 20
142.5328715776574
 30
0.0
 11
227.0283615961858
 21
145.7480061083553
 31
0.0
  0
LINE
  5
1BB
330
1F
100
AcDbEntity
  8
Sichtbare_Kanten_TC_020513_DIN_
  6
Continuous
 62
     7
100
AcDbLine
 10
224.7994836598488
 20
140.8574268979934
 30
0.0
 11
224.7994836598488
 21
142.5328715776574
 31
0.0
  0
LINE
  5
1BC
330
1F
100
AcDbEntity
  8
Sichtbare_Kanten_TC_020513_DIN_
  6
Continuous
 62
     7
100
AcDbLine
 10
217.2994836598488
 20
124.3952166626494
 30
0.0
 11
217.2994836598488
 21
124.4342593965223
 31
0.0
  0
LINE
  5
1BD
330
1F
100
AcDbEntity
  8
Sichtbare_Kanten_TC_020513_DIN_
  6
Continuous
 62
     7
100
AcDbLine
 10
248.5661209624438
 20
141.7085616739273
 30
0.0
 11
248.5661209624438
 21
140.3336798841544
 31
0.0
  0
LINE
  5
1BE
330
1F
100
AcDbEntity
  8
Sichtbare_Kanten_TC_020513_DIN_
  6
Continuous
 62
     7
100
AcDbLine
 10
248.5661209624438
 20
141.8938569126523
 30
0.0
 11
248.5661209624438
 21
141.7085616739273
 31
0.0
  0
LINE
  5
1BF
330
1F
100
AcDbEntity
  8
Sichtbare_Kanten_TC_020513_DIN_
  6
Continuous
 62
     7
100
AcDbLine
 10
256.3003963552407
 20
153.1104942152423
 30
0.0
 11
257.7827582650359
 21
153.1104942152423
 31
0.0
  0
LINE
  5
1C0
330
1F
100
AcDbEntity
  8
Sichtbare_Kanten_TC_020513_DIN_
  6
Continuous
 62
     7
100
AcDbLine
 10
257.7827582650359
 20
151.7104942152423
 30
0.0
 11
256.3003963552407
 21
151.7104942152423
 31
0.0
  0
LINE
  5
1C1
330
1F
100
AcDbEntity
  8
Sichtbare_Kanten_TC_020513_DIN_
  6
Continuous
 62
     7
100
AcDbLine
 10
257.7827582650359
 20
151.7104942152423
 30
0.0
 11
257.7827582650359
 21
153.1104942152423
 31
0.0
  0
LINE
  5
1C2
330
1F
100
AcDbEntity
  8
Sichtbare_Kanten_TC_020513_DIN_
  6
Continuous
 62
     7
100
AcDbLine
 10
251.3661209624448
 20
151.7104942152423
 30
0.0
 11
256.3003963552407
 21
151.7104942152423
 31
0.0
  0
LINE
  5
1C3
330
1F
100
AcDbEntity
  8
Sichtbare_Kanten_TC_020513_DIN_
  6
Continuous
 62
     7
100
AcDbLine
 10
256.3003963552407
 20
153.1104942152423
 30
0.0
 11
251.3661209624448
 21
153.1104942152423
 31
0.0
  0
LINE
  5
1C4
330
1F
100
AcDbEntity
  8
Sichtbare_Kanten_TC_020513_DIN_
  6
Continuous
 62
     7
100
AcDbLine
 10
220.1994836598488
 20
124.2952166626493
 30
0.0
 11
220.1994836598488
 21
122.8952166626494
 31
0.0
  0
LINE
  5
1C5
330
1F
100
AcDbEntity
  8
Sichtbare_Kanten_TC_020513_DIN_
  6
Continuous
 62
     7
100
AcDbLine
 10
220.1994836598488
 20
122.8952166626494
 30
0.0
 11
219.6994836598488
 21
122.8952166626494
 31
0.0
  0
LINE
  5
1C6
330
1F
100
AcDbEntity
  8
Sichtbare_Kanten_TC_020513_DIN_
  6
Continuous
 62
     7
100
AcDbLine
 10
219.6994836598488
 20
124.2952166626493
 30
0.0
 11
220.1994836598488
 21
124.2952166626493
 31
0.0
  0
LINE
  5
1C7
330
1F
100
AcDbEntity
  8
Sichtbare_Kanten_TC_020513_DIN_
  6
Continuous
 62
     7
100
AcDbLine
 10
217.7994836598488
 20
122.8952166626494
 30
0.0
 11
219.6994836598488
 21
122.8952166626494
 31
0.0
  0
LINE
  5
1C8
330
1F
100
AcDbEntity
  8
Sichtbare_Kanten_TC_020513_DIN_
  6
Continuous
 62
     7
100
AcDbLine
 10
219.6994836598488
 20
124.2952166626493
 30
0.0
 11
217.7994836598488
 21
124.2952166626493
 31
0.0
  0
LINE
  5
1C9
330
1F
100
AcDbEntity
  8
Sichtbare_Kanten_TC_020513_DIN_
  6
Continuous
 62
     7
100
AcDbLine
 10
217.7994836598488
 20
122.8952166626494
 30
0.0
 11
217.2994836598488
 21
122.8952166626494
 31
0.0
  0
LINE
  5
1CA
330
1F
100
AcDbEntity
  8
Sichtbare_Kanten_TC_020513_DIN_
  6
Continuous
 62
     7
100
AcDbLine
 10
217.2994836598488
 20
124.2952166626493
 30
0.0
 11
217.7994836598488
 21
124.2952166626493
 31
0.0
  0
LINE
  5
1CB
330
1F
100
AcDbEntity
  8
Sichtbare_Kanten_TC_020513_DIN_
  6
Continuous
 62
     7
100
AcDbLine
 10
217.2994836598488
 20
124.2952166626493
 30
0.0
 11
217.2994836598488
 21
122.8952166626494
 31
0.0
  0
LINE
  5
1CC
330
1F
100
AcDbEntity
  8
Sichtbare_Kanten_TC_020513_DIN_
  6
Continuous
 62
     7
100
AcDbLine
 10
252.0235280329778
 20
132.2985014389773
 30
0.0
 11
251.3970548193888
 21
133.6419775810313
 31
0.0
  0
LINE
  5
1CD
330
1F
100
AcDbEntity
  8
Sichtbare_Kanten_TC_020513_DIN_
  6
Continuous
 62
     7
100
AcDbLine
 10
253.2923589348288
 20
132.8901670054143
 30
0.0
 11
252.0235280329778
 21
132.2985014389773
 31
0.0
  0
LINE
  5
1CE
330
1F
100
AcDbEntity
  8
Sichtbare_Kanten_TC_020513_DIN_
  6
Continuous
 62
     7
100
AcDbLine
 10
252.6658857212407
 20
134.2336431474683
 30
0.0
 11
253.2923589348288
 21
132.8901670054143
 31
0.0
  0
LINE
  5
1CF
330
1F
100
AcDbEntity
  8
Sichtbare_Kanten_TC_020513_DIN_
  6
Continuous
 62
     7
100
AcDbLine
 10
248.8284591587419
 20
139.1503487512804
 30
0.0
 11
251.3970548193888
 21
133.6419775810313
 31
0.0
  0
LINE
  5
1D0
330
1F
100
AcDbEntity
  8
Sichtbare_Kanten_TC_020513_DIN_
  6
Continuous
 62
     7
100
AcDbLine
 10
252.6658857212407
 20
134.2336431474683
 30
0.0
 11
250.0972900605928
 21
139.7420143177173
 31
0.0
  0
LINE
  5
1D1
330
1F
100
AcDbEntity
  8
Sichtbare_Kanten_TC_020513_DIN_
  6
Continuous
 62
     7
100
AcDbLine
 10
249.5390009718328
 20
139.4816798401643
 30
0.0
 11
248.8284591587419
 21
139.1503487512804
 31
0.0
  0
LINE
  5
1D2
330
1F
100
AcDbEntity
  8
Sichtbare_Kanten_TC_020513_DIN_
  6
Continuous
 62
     7
100
AcDbLine
 10
250.0972900605928
 20
139.7420143177173
 30
0.0
 11
249.5390009718328
 21
139.4816798401643
 31
0.0
  0
LINE
  5
1D3
330
1F
100
AcDbEntity
  8
Sichtbare_Kanten_TC_020513_DIN_
  6
Continuous
 62
     7
100
AcDbLine
 10
249.3501171095098
 20
140.3336798841544
 30
0.0
 11
249.9661209624438
 21
140.3336798841544
 31
0.0
  0
LINE
  5
1D4
330
1F
100
AcDbEntity
  8
Sichtbare_Kanten_TC_020513_DIN_
  6
Continuous
 62
     7
100
AcDbLine
 10
248.5661209624438
 20
140.3336798841544
 30
0.0
 11
249.3501171095098
 21
140.3336798841544
 31
0.0
  0
LINE
  5
1D5
330
1F
100
AcDbEntity
  8
Sichtbare_Kanten_TC_020513_DIN_
  6
Continuous
 62
     7
100
AcDbLine
 10
217.2994836598488
 20
124.3952166626494
 30
0.0
 11
217.2994836598488
 21
124.2952166626493
 31
0.0
  0
LINE
  5
1D6
330
1F
100
AcDbEntity
  8
Sichtbare_Kanten_TC_020513_DIN_
  6
Continuous
 62
     7
100
AcDbLine
 10
220.1994836598488
 20
124.2952166626493
 30
0.0
 11
220.1994836598498
 21
124.3952166626494
 31
0.0
  0
LINE
  5
1D7
330
1F
100
AcDbEntity
  8
Sichtbare_Kanten_TC_020513_DIN_
  6
Continuous
 62
     7
100
AcDbLine
 10
251.3661209624448
 20
152.3264953455243
 30
0.0
 11
251.3661209624448
 21
151.7104942152423
 31
0.0
  0
LINE
  5
1D8
330
1F
100
AcDbEntity
  8
Sichtbare_Kanten_TC_020513_DIN_
  6
Continuous
 62
     7
100
AcDbLine
 10
251.3661209624448
 20
153.1104942152423
 30
0.0
 11
251.3661209624448
 21
152.3264953455243
 31
0.0
  0
LINE
  5
1D9
330
1F
100
AcDbEntity
  8
Sichtbare_Kanten_TC_020513_DIN_
  6
Continuous
 62
     7
100
AcDbLine
 10
236.9394836598468
 20
97.92287157765733
 30
0.0
 11
236.9394836598468
 21
82.53287157765689
 31
0.0
  0
LINE
  5
1DA
330
1F
100
AcDbEntity
  8
Sichtbare_Kanten_TC_020513_DIN_
  6
Continuous
 62
     7
100
AcDbLine
 10
206.6594836598468
 20
82.53287157765689
 30
0.0
 11
206.6594836598468
 21
97.92287157765733
 31
0.0
  0
LINE
  5
1DB
330
1F
100
AcDbEntity
  8
Sichtbare_Kanten_TC_020513_DIN_
  6
Continuous
 62
     7
100
AcDbLine
 10
250.2994836598468
 20
78.53287157765689
 30
0.0
 11
193.2994836598468
 21
78.53287157765689
 31
0.0
  0
LINE
  5
1DC
330
1F
100
AcDbEntity
  8
Sichtbare_Kanten_TC_020513_DIN_
  6
Continuous
 62
     7
100
AcDbLine
 10
206.6594836598468
 20
82.53287157765689
 30
0.0
 11
193.2994836598468
 21
82.53287157765689
 31
0.0
  0
LINE
  5
1DD
330
1F
100
AcDbEntity
  8
Sichtbare_Kanten_TC_020513_DIN_
  6
Continuous
 62
     7
100
AcDbLine
 10
250.2994836598468
 20
82.53287157765689
 30
0.0
 11
236.9394836598468
 21
82.53287157765689
 31
0.0
  0
LINE
  5
1DE
330
1F
100
AcDbEntity
  8
Sichtbare_Kanten_TC_020513_DIN_
  6
Continuous
 62
     7
100
AcDbLine
 10
193.2994836598468
 20
78.53287157765689
 30
0.0
 11
193.2994836598468
 21
82.53287157765689
 31
0.0
  0
LINE
  5
1DF
330
1F
100
AcDbEntity
  8
Sichtbare_Kanten_TC_020513_DIN_
  6
Continuous
 62
     7
100
AcDbLine
 10
250.2994836598468
 20
78.53287157765689
 30
0.0
 11
250.2994836598468
 21
82.53287157765689
 31
0.0
  0
LINE
  5
1E0
330
1F
100
AcDbEntity
  8
Sichtbare_Kanten_TC_020513_DIN_
  6
Continuous
 62
     7
100
AcDbLine
 10
199.7494836598518
 20
141.5328715776574
 30
0.0
 11
199.7494836598518
 21
137.5328715776574
 31
0.0
  0
LINE
  5
1E1
330
1F
100
AcDbEntity
  8
Sichtbare_Kanten_TC_020513_DIN_
  6
Continuous
 62
     7
100
AcDbLine
 10
205.5494836598498
 20
141.5328715776574
 30
0.0
 11
199.7494836598518
 21
141.5328715776574
 31
0.0
  0
LINE
  5
1E2
330
1F
100
AcDbEntity
  8
Sichtbare_Kanten_TC_020513_DIN_
  6
Continuous
 62
     7
100
AcDbLine
 10
205.5494836598498
 20
141.5328715776574
 30
0.0
 11
224.7994836598497
 21
141.5328715776574
 31
0.0
  0
LINE
  5
1E3
330
1F
100
AcDbEntity
  8
Sichtbare_Kanten_TC_020513_DIN_
  6
Continuous
 62
     7
100
AcDbLine
 10
235.9366506220288
 20
141.5328715776574
 30
0.0
 11
238.0494836598497
 21
141.5328715776574
 31
0.0
  0
LINE
  5
1E4
330
1F
100
AcDbEntity
  8
Sichtbare_Kanten_TC_020513_DIN_
  6
Continuous
 62
     7
100
AcDbLine
 10
243.8494836598517
 20
141.5328715776574
 30
0.0
 11
243.8494836598517
 21
137.5328715776574
 31
0.0
  0
LINE
  5
1E5
330
1F
100
AcDbEntity
  8
Sichtbare_Kanten_TC_020513_DIN_
  6
Continuous
 62
     7
100
AcDbLine
 10
243.8494836598517
 20
141.5328715776574
 30
0.0
 11
238.0494836598497
 21
141.5328715776574
 31
0.0
  0
LINE
  5
1E6
330
1F
100
AcDbEntity
  8
Sichtbare_Kanten_TC_020513_DIN_
  6
Continuous
 62
     7
100
AcDbLine
 10
199.5494836598518
 20
137.5328715776574
 30
0.0
 11
205.5494836598498
 21
137.5328715776574
 31
0.0
  0
LINE
  5
1E7
330
1F
100
AcDbEntity
  8
Sichtbare_Kanten_TC_020513_DIN_
  6
Continuous
 62
     7
100
AcDbLine
 10
199.5494836598518
 20
82.53287157765689
 30
0.0
 11
199.5494836598518
 21
137.5328715776574
 31
0.0
  0
LINE
  5
1E8
330
1F
100
AcDbEntity
  8
Sichtbare_Kanten_TC_020513_DIN_
  6
Continuous
 62
     7
100
AcDbLine
 10
238.0494836598497
 20
137.5328715776574
 30
0.0
 11
231.1838168518438
 21
137.5328715776574
 31
0.0
  0
LINE
  5
1E9
330
1F
100
AcDbEntity
  8
Sichtbare_Kanten_TC_020513_DIN_
  6
Continuous
 62
     7
100
AcDbLine
 10
215.4749283395128
 20
137.5328715776574
 30
0.0
 11
205.5494836598498
 21
137.5328715776574
 31
0.0
  0
LINE
  5
1EA
330
1F
100
AcDbEntity
  8
Sichtbare_Kanten_TC_020513_DIN_
  6
Continuous
 62
     7
100
AcDbLine
 10
244.0494836598518
 20
82.53287157765689
 30
0.0
 11
244.0494836598518
 21
128.5328715776574
 31
0.0
  0
LINE
  5
1EB
330
1F
100
AcDbEntity
  8
Sichtbare_Kanten_TC_020513_DIN_
  6
Continuous
 62
     7
100
AcDbLine
 10
244.0494836598518
 20
135.5328715776574
 30
0.0
 11
244.0494836598518
 21
137.5328715776574
 31
0.0
  0
LINE
  5
1EC
330
1F
100
AcDbEntity
  8
Sichtbare_Kanten_TC_020513_DIN_
  6
Continuous
 62
     7
100
AcDbLine
 10
238.0494836598497
 20
137.5328715776574
 30
0.0
 11
244.0494836598518
 21
137.5328715776574
 31
0.0
  0
LINE
  5
1ED
330
1F
100
AcDbEntity
  8
Sichtbare_Kanten_TC_020513_DIN_
  6
Continuous
 62
     7
100
AcDbLine
 10
252.9883725487397
 20
122.3162342750663
 30
0.0
 11
256.0994836598529
 21
122.3162342750663
 31
0.0
  0
LINE
  5
1EE
330
1F
100
AcDbEntity
  8
Sichtbare_Kanten_TC_020513_DIN_
  6
Continuous
 62
     7
100
AcDbLine
 10
252.9883725487397
 20
122.3162342750663
 30
0.0
 11
252.5994836598508
 21
122.3162342750663
 31
0.0
  0
LINE
  5
1EF
330
1F
100
AcDbEntity
  8
Sichtbare_Kanten_TC_020513_DIN_
  6
Continuous
 62
     7
100
AcDbLine
 10
245.5994836598528
 20
122.3162342750663
 30
0.0
 11
245.5618287448448
 21
122.3162342750663
 31
0.0
  0
LINE
  5
1F0
330
1F
100
AcDbEntity
  8
Sichtbare_Kanten_TC_020513_DIN_
  6
Continuous
 62
     7
100
AcDbLine
 10
256.0994836598529
 20
122.3162342750663
 30
0.0
 11
256.0994836598529
 21
123.7162342750663
 31
0.0
  0
LINE
  5
1F1
330
1F
100
AcDbEntity
  8
Sichtbare_Kanten_TC_020513_DIN_
  6
Continuous
 62
     7
100
AcDbLine
 10
245.4618287448448
 20
121.3785793600593
 30
0.0
 11
244.0618287448448
 21
121.3785793600593
 31
0.0
  0
LINE
  5
1F2
330
1F
100
AcDbEntity
  8
Sichtbare_Kanten_TC_020513_DIN_
  6
Continuous
 62
     7
100
AcDbLine
 10
244.0618287448448
 20
122.2162342750663
 30
0.0
 11
244.0618287448448
 21
121.3785793600593
 31
0.0
  0
LINE
  5
1F3
330
1F
100
AcDbEntity
  8
Sichtbare_Kanten_TC_020513_DIN_
  6
Continuous
 62
     7
100
AcDbLine
 10
245.4618287448448
 20
122.2162342750663
 30
0.0
 11
245.4618287448448
 21
121.3785793600593
 31
0.0
  0
LINE
  5
1F4
330
1F
100
AcDbEntity
  8
Sichtbare_Kanten_TC_020513_DIN_
  6
Continuous
 62
     7
100
AcDbLine
 10
245.5994836598528
 20
123.7162342750663
 30
0.0
 11
245.5618287448448
 21
123.7162342750663
 31
0.0
  0
LINE
  5
1F5
330
1F
100
AcDbEntity
  8
Sichtbare_Kanten_TC_020513_DIN_
  6
Continuous
 62
     7
100
AcDbLine
 10
252.9883725487397
 20
123.7162342750663
 30
0.0
 11
252.5994836598508
 21
123.7162342750663
 31
0.0
  0
LINE
  5
1F6
330
1F
100
AcDbEntity
  8
Sichtbare_Kanten_TC_020513_DIN_
  6
Continuous
 62
     7
100
AcDbLine
 10
252.9883725487397
 20
123.7162342750663
 30
0.0
 11
256.0994836598529
 21
123.7162342750663
 31
0.0
  0
LINE
  5
1F7
330
1F
100
AcDbEntity
  8
Sichtbare_Kanten_TC_020513_DIN_
  6
Continuous
 62
     7
100
AcDbLine
 10
252.5994836598488
 20
125.1162342750663
 30
0.0
 11
252.5994836598488
 21
127.5328715776574
 31
0.0
  0
LINE
  5
1F8
330
1F
100
AcDbEntity
  8
Sichtbare_Kanten_TC_020513_DIN_
  6
Continuous
 62
     7
100
AcDbLine
 10
244.5994836598488
 20
135.5328715776574
 30
0.0
 11
231.7994836598488
 21
135.5328715776574
 31
0.0
  0
LINE
  5
1F9
330
1F
100
AcDbEntity
  8
Sichtbare_Kanten_TC_020513_DIN_
  6
Continuous
 62
     7
100
AcDbLine
 10
214.7994836598488
 20
134.5328715776574
 30
0.0
 11
214.7994836598488
 21
121.0328715776574
 31
0.0
  0
LINE
  5
1FA
330
1F
100
AcDbEntity
  8
Sichtbare_Kanten_TC_020513_DIN_
  6
Continuous
 62
     7
100
AcDbLine
 10
233.7994836598488
 20
128.5328715776574
 30
0.0
 11
244.5994836598488
 21
128.5328715776574
 31
0.0
  0
LINE
  5
1FB
330
1F
100
AcDbEntity
  8
Sichtbare_Kanten_TC_020513_DIN_
  6
Continuous
 62
     7
100
AcDbLine
 10
245.5994836598488
 20
127.5328715776574
 30
0.0
 11
245.5994836598488
 21
125.1162342750663
 31
0.0
  0
LINE
  5
1FC
330
1F
100
AcDbEntity
  8
Sichtbare_Kanten_TC_020513_DIN_
  6
Continuous
 62
     7
100
AcDbLine
 10
252.5994836598508
 20
122.3162342750663
 30
0.0
 11
245.5994836598528
 21
122.3162342750663
 31
0.0
  0
LINE
  5
1FD
330
1F
100
AcDbEntity
  8
Sichtbare_Kanten_TC_020513_DIN_
  6
Continuous
 62
     7
100
AcDbLine
 10
245.5994836598528
 20
122.3162342750663
 30
0.0
 11
245.5994836598488
 21
125.1162342750663
 31
0.0
  0
LINE
  5
1FE
330
1F
100
AcDbEntity
  8
Sichtbare_Kanten_TC_020513_DIN_
  6
Continuous
 62
     7
100
AcDbLine
 10
252.5994836598488
 20
125.1162342750663
 30
0.0
 11
252.5994836598508
 21
122.3162342750663
 31
0.0
  0
LINE
  5
1FF
330
1F
100
AcDbEntity
  8
Mittelpunktmarkierung_TC_020513_DIN_
  6
CHAIN
 62
     7
100
AcDbLine
 10
238.8514836598858
 20
97.92287157765733
 30
0.0
 11
204.7474836598858
 21
97.92287157765733
 31
0.0
  0
LINE
  5
200
330
1F
100
AcDbEntity
  8
Mittelpunktmarkierung_TC_020513_DIN_
  6
CHAIN
 62
     7
100
AcDbLine
 10
221.7994836598858
 20
114.9748715776573
 30
0.0
 11
221.7994836598858
 21
80.87087157765691
 31
0.0
  0
LINE
  5
201
330
1F
100
AcDbEntity
  8
Mittelpunktmarkierung_TC_020513_DIN_
  6
CHAIN
 62
     7
100
AcDbLine
 10
223.0494836598488
 20
123.5328715776574
 30
0.0
 11
214.5494836598488
 21
123.5328715776574
 31
0.0
  0
LINE
  5
202
330
1F
100
AcDbEntity
  8
Mittelpunktmarkierung_TC_020513_DIN_
  6
CHAIN
 62
     7
100
AcDbLine
 10
218.7994836598488
 20
127.7828715776574
 30
0.0
 11
218.7994836598488
 21
119.2828715776573
 31
0.0
  0
LINE
  5
203
330
1F
100
AcDbEntity
  8
Mittelpunktmarkierung_TC_020513_DIN_
  6
CHAIN
 62
     7
100
AcDbLine
 10
228.9994836598488
 20
134.5328715776574
 30
0.0
 11
214.5994836598478
 21
134.5328715776574
 31
0.0
  0
LINE
  5
204
330
1F
100
AcDbEntity
  8
Mittelpunktmarkierung_TC_020513_DIN_
  6
CHAIN
 62
     7
100
AcDbLine
 10
221.7994836598478
 20
141.7328715776573
 30
0.0
 11
221.7994836598478
 21
127.3328715776573
 31
0.0
  0
LINE
  5
205
330
1F
100
AcDbEntity
  8
Mittellinie_TC_020513_DIN_
  6
CHAIN
 62
     7
100
AcDbLine
 10
244.2994836598488
 20
76.03287157765689
 30
0.0
 11
244.2994836598488
 21
85.03287157765689
 31
0.0
  0
LINE
  5
206
330
1F
100
AcDbEntity
  8
Mittellinie_TC_020513_DIN_
  6
CHAIN
 62
     7
100
AcDbLine
 10
199.2994836598488
 20
76.03287157765689
 30
0.0
 11
199.2994836598488
 21
85.03287157765689
 31
0.0
  0
LINE
  5
207
330
1F
100
AcDbEntity
  8
Mittellinie_TC_020513_DIN_
  6
CHAIN
 62
     7
100
AcDbLine
 10
165.8037194169738
 20
76.03287157765689
 30
0.0
 11
165.8037194169738
 21
85.03287157765689
 31
0.0
  0
LINE
  5
208
330
1F
100
AcDbEntity
  8
Mittellinie_TC_020513_DIN_
  6
CHAIN
 62
     7
100
AcDbLine
 10
156.3037194169738
 20
97.92287157765733
 30
0.0
 11
174.3037194169738
 21
97.92287157765733
 31
0.0
  0
LINE
  5
209
330
1F
100
AcDbEntity
  8
Mittellinie_TC_020513_DIN_
  6
CHAIN
 62
     7
100
AcDbLine
 10
25.30371941697416
 20
97.92287157765733
 30
0.0
 11
43.30371941697416
 21
97.92287157765733
 31
0.0
  0
LINE
  5
20A
330
1F
100
AcDbEntity
  8
Mittellinie_TC_020513_DIN_
  6
CHAIN
 62
     7
100
AcDbLine
 10
33.80371941697416
 20
76.03287157765689
 30
0.0
 11
33.80371941697416
 21
85.03287157765689
 31
0.0
  0
LINE
  5
20B
330
1F
100
AcDbEntity
  8
Mittellinie_TC_020513_DIN_
  6
CHAIN
 62
     7
100
AcDbLine
 10
33.7037194169742
 20
134.5328715776574
 30
0.0
 11
41.96371941697419
 21
134.5328715776574
 31
0.0
  0
LINE
  5
20C
330
1F
100
AcDbEntity
  8
Mittellinie_TC_020513_DIN_
  6
CHAIN
 62
     7
100
AcDbLine
 10
31.7037194169742
 20
134.5328715776574
 30
0.0
 11
37.30371941697416
 21
134.5328715776574
 31
0.0
  0
LINE
  5
20D
330
1F
100
AcDbEntity
  8
Mittellinie_TC_020513_DIN_
  6
CHAIN
 62
     7
100
AcDbLine
 10
162.3037194169738
 20
134.5328715776574
 30
0.0
 11
167.9037194169738
 21
134.5328715776574
 31
0.0
  0
LINE
  5
20E
330
1F
100
AcDbEntity
  8
Mittellinie_TC_020513_DIN_
  6
CHAIN
 62
     7
100
AcDbLine
 10
157.6437194169738
 20
134.5328715776574
 30
0.0
 11
165.9037194169738
 21
134.5328715776574
 31
0.0
  0
LINE
  5
20F
330
1F
100
AcDbEntity
  8
Mittellinie_TC_020513_DIN_
  6
CHAIN
 62
     7
100
AcDbLine
 10
99.80371941697376
 20
75.9131882238812
 30
0.0
 11
99.80371941697376
 21
155.4235414702203
 31
0.0
  0
ARC
  5
4C8
330
1F
100
AcDbEntity
  8
Sichtbare_Kanten_TC_020513_DIN_
  6
Continuous
 62
     7
100
AcDbCircle
 10
102.8037194169738
 20
145.0328715776574
 30
0.0
 40
0.25
100
AcDbArc
 50
270.0
 51
90.0
  0
ARC
  5
4C9
330
1F
100
AcDbEntity
  8
Sichtbare_Kanten_TC_020513_DIN_
  6
Continuous
 62
     7
100
AcDbCircle
 10
102.8037194169738
 20
143.8795060595683
 30
0.0
 40
0.2500000000001716
100
AcDbArc
 50
299.9816393689858
 51
119.9816393687916
  0
ARC
  5
4CA
330
1F
100
AcDbEntity
  8
Sichtbare_Kanten_TC_020513_DIN_
  6
Continuous
 62
     7
100
AcDbCircle
 10
101.8037194169738
 20
143.3025829826453
 30
0.0
 40
0.25
100
AcDbArc
 50
180.0
 51
299.9816393689858
  0
ARC
  5
4CB
330
1F
100
AcDbEntity
  8
Sichtbare_Kanten_TC_020513_DIN_
  6
Continuous
 62
     7
100
AcDbCircle
 10
102.8037194169738
 20
146.1862370957453
 30
0.0
 40
0.2499999999996745
100
AcDbArc
 50
240.0183606312116
 51
60.01836063101418
  0
ARC
  5
4CC
330
1F
100
AcDbEntity
  8
Sichtbare_Kanten_TC_020513_DIN_
  6
Continuous
 62
     7
100
AcDbCircle
 10
101.8037194169738
 20
146.7631601726683
 30
0.0
 40
0.2500000000001716
100
AcDbArc
 50
60.01836063101418
 51
180.0
  0
ARC
  5
4CD
330
1F
100
AcDbEntity
  8
Sichtbare_Kanten_TC_020513_DIN_
  6
Continuous
 62
     7
100
AcDbCircle
 10
96.7537194169742
 20
143.9083522134153
 30
0.0
 40
0.25
100
AcDbArc
 50
180.0
 51
0.0
  0
ARC
  5
4CE
330
1F
100
AcDbEntity
  8
Sichtbare_Kanten_TC_020513_DIN_
  6
Continuous
 62
     7
100
AcDbCircle
 10
96.7537194169742
 20
146.1573909418993
 30
0.0
 40
0.25
100
AcDbArc
 50
0.0
 51
180.0
  0
ARC
  5
4CF
330
1F
100
AcDbEntity
  8
Sichtbare_Kanten_TC_020513_DIN_
  6
Continuous
 62
     7
100
AcDbCircle
 10
99.80371941697376
 20
142.1487368287993
 30
0.0
 40
0.2499999999998928
100
AcDbArc
 50
240.018361485073
 51
60.01836063101135
  0
ARC
  5
4D0
330
1F
100
AcDbEntity
  8
Sichtbare_Kanten_TC_020513_DIN_
  6
Continuous
 62
     7
100
AcDbCircle
 10
97.7537194169742
 20
143.3314291364913
 30
0.0
 40
0.25
100
AcDbArc
 50
180.0
 51
240.0183606311242
  0
ARC
  5
4D1
330
1F
100
AcDbEntity
  8
Sichtbare_Kanten_TC_020513_DIN_
  6
Continuous
 62
     7
100
AcDbCircle
 10
97.7537194169742
 20
146.7343140188224
 30
0.0
 40
0.25
100
AcDbArc
 50
0.0
 51
180.0
  0
ARC
  5
4D2
330
1F
100
AcDbEntity
  8
Sichtbare_Kanten_TC_020513_DIN_
  6
Continuous
 62
     7
100
AcDbCircle
 10
100.8037194169738
 20
147.3400832495913
 30
0.0
 40
0.25
100
AcDbArc
 50
0.0
 51
144.0904238228751
  0
ARC
  5
4D3
330
1F
100
AcDbEntity
  8
Sichtbare_Kanten_TC_020513_DIN_
  6
Continuous
 62
     7
100
AcDbCircle
 10
100.8037194169738
 20
142.7256599057223
 30
0.0
 40
0.25
100
AcDbArc
 50
180.0
 51
0.0
  0
ARC
  5
4D4
330
1F
100
AcDbEntity
  8
Sichtbare_Kanten_TC_020513_DIN_
  6
Continuous
 62
     7
100
AcDbCircle
 10
98.80371941697416
 20
147.3400832495913
 30
0.0
 40
0.250000000000344
100
AcDbArc
 50
35.90957617710964
 51
180.0
  0
ARC
  5
4D5
330
1F
100
AcDbEntity
  8
Sichtbare_Kanten_TC_020513_DIN_
  6
Continuous
 62
     7
100
AcDbCircle
 10
98.80371941697416
 20
143.9083522134153
 30
0.0
 40
0.25
100
AcDbArc
 50
180.0
 51
0.0
  0
ARC
  5
4D6
330
1F
100
AcDbEntity
  8
Sichtbare_Kanten_TC_020513_DIN_
  6
Continuous
 62
     7
100
AcDbCircle
 10
150.5370821143838
 20
141.6438569126523
 30
0.0
 40
0.25
100
AcDbArc
 50
90.0
 51
165.0000000001798
  0
ARC
  5
4D7
330
1F
100
AcDbEntity
  8
Sichtbare_Kanten_TC_020513_DIN_
  6
Continuous
 62
     7
100
AcDbCircle
 10
158.0370821143838
 20
150.8938569126523
 30
0.0
 40
1.0
100
AcDbArc
 50
90.0
 51
140.0000000000246
  0
ARC
  5
4D8
330
1F
100
AcDbEntity
  8
Sichtbare_Kanten_TC_020513_DIN_
  6
Continuous
 62
     7
100
AcDbCircle
 10
155.4262675357188
 20
150.8938569126523
 30
0.0
 40
1.0
100
AcDbArc
 50
270.0
 51
319.999999999981
  0
ARC
  5
4D9
330
1F
100
AcDbEntity
  8
Sichtbare_Kanten_TC_020513_DIN_
  6
Continuous
 62
     7
100
AcDbCircle
 10
150.5370821143838
 20
151.3938569126523
 30
0.0
 40
1.500000000000735
100
AcDbArc
 50
226.2398789709942
 51
270.0
  0
ARC
  5
4DA
330
1F
100
AcDbEntity
  8
Sichtbare_Kanten_TC_020513_DIN_
  6
Continuous
 62
     7
100
AcDbCircle
 10
49.07035671956498
 20
151.3938569126523
 30
0.0
 40
1.5
100
AcDbArc
 50
270.0
 51
313.7601210289984
  0
ARC
  5
4DB
330
1F
100
AcDbEntity
  8
Sichtbare_Kanten_TC_020513_DIN_
  6
Continuous
 62
     7
100
AcDbCircle
 10
44.18117129822946
 20
150.8938569126523
 30
0.0
 40
1.00000000000028
100
AcDbArc
 50
220.0000000000203
 51
270.0
  0
ARC
  5
4DC
330
1F
100
AcDbEntity
  8
Sichtbare_Kanten_TC_020513_DIN_
  6
Continuous
 62
     7
100
AcDbCircle
 10
41.57035671956487
 20
150.8938569126523
 30
0.0
 40
0.9999999999996895
100
AcDbArc
 50
39.9999999999743
 51
90.0
  0
ARC
  5
4DD
330
1F
100
AcDbEntity
  8
Sichtbare_Kanten_TC_020513_DIN_
  6
Continuous
 62
     7
100
AcDbCircle
 10
49.07035671956498
 20
141.6438569126523
 30
0.0
 40
0.2499999999997977
100
AcDbArc
 50
14.99999999986527
 51
90.0
  0
ARC
  5
4DE
330
1F
100
AcDbEntity
  8
Sichtbare_Kanten_TC_020513_DIN_
  6
Continuous
 62
     7
100
AcDbCircle
 10
36.7037194169742
 20
124.3952166626494
 30
0.0
 40
0.100000000000108
100
AcDbArc
 50
270.0
 51
0.0
  0
ARC
  5
4DF
330
1F
100
AcDbEntity
  8
Sichtbare_Kanten_TC_020513_DIN_
  6
Continuous
 62
     7
100
AcDbCircle
 10
36.7037194169742
 20
124.3952166626494
 30
0.0
 40
1.499999999999957
100
AcDbArc
 50
333.0858507981479
 51
0.0
  0
ARC
  5
4E0
330
1F
100
AcDbEntity
  8
Sichtbare_Kanten_TC_020513_DIN_
  6
Continuous
 62
     7
100
AcDbCircle
 10
162.9037194169738
 20
124.3952166626494
 30
0.0
 40
0.0999999999999943
100
AcDbArc
 50
180.0
 51
270.0
  0
ARC
  5
4E1
330
1F
100
AcDbEntity
  8
Sichtbare_Kanten_TC_020513_DIN_
  6
Continuous
 62
     7
100
AcDbCircle
 10
162.9037194169738
 20
124.3952166626494
 30
0.0
 40
1.5
100
AcDbArc
 50
180.0
 51
206.9141492018559
  0
ARC
  5
4E2
330
1F
100
AcDbEntity
  8
Sichtbare_Kanten_TC_020513_DIN_
  6
Continuous
 62
     7
100
AcDbCircle
 10
33.50371941697421
 20
138.5328715776574
 30
0.0
 40
0.6999999999999957
100
AcDbArc
 50
0.0
 51
180.0
  0
ARC
  5
4E3
330
1F
100
AcDbEntity
  8
Sichtbare_Kanten_TC_020513_DIN_
  6
Continuous
 62
     7
100
AcDbCircle
 10
33.50371941697421
 20
130.5328715776574
 30
0.0
 40
0.7000000000000455
100
AcDbArc
 50
180.0
 51
0.0
  0
ARC
  5
4E4
330
1F
100
AcDbEntity
  8
Sichtbare_Kanten_TC_020513_DIN_
  6
Continuous
 62
     7
100
AcDbCircle
 10
166.1037194169738
 20
130.5328715776574
 30
0.0
 40
0.700000000000017
100
AcDbArc
 50
180.0
 51
0.0
  0
ARC
  5
4E5
330
1F
100
AcDbEntity
  8
Sichtbare_Kanten_TC_020513_DIN_
  6
Continuous
 62
     7
100
AcDbCircle
 10
166.1037194169738
 20
138.5328715776574
 30
0.0
 40
0.6999999999999886
100
AcDbArc
 50
0.0
 51
180.0
  0
ARC
  5
4E6
330
1F
100
AcDbEntity
  8
Sichtbare_Kanten_TC_020513_DIN_
  6
Continuous
 62
     7
100
AcDbCircle
 10
110.0870821143838
 20
121.8785793600583
 30
0.0
 40
0.5
100
AcDbArc
 50
180.0
 51
270.0
  0
ARC
  5
4E7
330
1F
100
AcDbEntity
  8
Sichtbare_Kanten_TC_020513_DIN_
  6
Continuous
 62
     7
100
AcDbCircle
 10
162.0037194169738
 20
125.1162342750663
 30
0.0
 40
2.800000000000011
100
AcDbArc
 50
270.0
 51
0.0
  0
ARC
  5
4E8
330
1F
100
AcDbEntity
  8
Sichtbare_Kanten_TC_020513_DIN_
  6
Continuous
 62
     7
100
AcDbCircle
 10
162.0037194169738
 20
125.1162342750663
 30
0.0
 40
1.400000000000006
100
AcDbArc
 50
270.0
 51
0.0
  0
ARC
  5
4E9
330
1F
100
AcDbEntity
  8
Sichtbare_Kanten_TC_020513_DIN_
  6
Continuous
 62
     7
100
AcDbCircle
 10
89.52035671956486
 20
121.8785793600583
 30
0.0
 40
0.5
100
AcDbArc
 50
270.0
 51
0.0
  0
ARC
  5
4EA
330
1F
100
AcDbEntity
  8
Sichtbare_Kanten_TC_020513_DIN_
  6
Continuous
 62
     7
100
AcDbCircle
 10
37.60371941697417
 20
125.1162342750663
 30
0.0
 40
2.800000000000011
100
AcDbArc
 50
180.0
 51
270.0
  0
ARC
  5
4EB
330
1F
100
AcDbEntity
  8
Sichtbare_Kanten_TC_020513_DIN_
  6
Continuous
 62
     7
100
AcDbCircle
 10
37.60371941697417
 20
125.1162342750663
 30
0.0
 40
1.39999999999997
100
AcDbArc
 50
180.0
 51
270.0
  0
ARC
  5
4EC
330
1F
100
AcDbEntity
  8
Sichtbare_Kanten_TC_020513_DIN_
  6
Continuous
 62
     7
100
AcDbCircle
 10
231.6857267706147
 20
137.5328715776574
 30
0.0
 40
0.4999999999994456
100
AcDbArc
 50
128.3440606647267
 51
175.0000000001087
  0
ARC
  5
4ED
330
1F
100
AcDbEntity
  8
Sichtbare_Kanten_TC_020513_DIN_
  6
Continuous
 62
     7
100
AcDbCircle
 10
241.7994836598488
 20
145.5328715776574
 30
0.0
 40
0.4999999999996086
100
AcDbArc
 50
38.34406066456656
 51
128.344060664645
  0
ARC
  5
4EE
330
1F
100
AcDbEntity
  8
Sichtbare_Kanten_TC_020513_DIN_
  6
Continuous
 62
     7
100
AcDbCircle
 10
245.7994836598488
 20
142.8938569126523
 30
0.0
 40
0.9999999999999285
100
AcDbArc
 50
218.3440606646942
 51
270.0
  0
ARC
  5
4EF
330
1F
100
AcDbEntity
  8
Sichtbare_Kanten_TC_020513_DIN_
  6
Continuous
 62
     7
100
AcDbCircle
 10
225.5392019790208
 20
124.5328715776574
 30
0.0
 40
35.00000000000027
100
AcDbArc
 50
58.50330715785243
 51
90.0
  0
ARC
  5
4F0
330
1F
100
AcDbEntity
  8
Sichtbare_Kanten_TC_020513_DIN_
  6
Continuous
 62
     7
100
AcDbCircle
 10
217.5392019790208
 20
155.2328715776573
 30
0.0
 40
4.300000000000097
100
AcDbArc
 50
90.0
 51
298.9550243718667
  0
ARC
  5
4F1
330
1F
100
AcDbEntity
  8
Sichtbare_Kanten_TC_020513_DIN_
  6
Continuous
 62
     7
100
AcDbCircle
 10
221.7994836598488
 20
147.5328715776574
 30
0.0
 40
4.50000000000064
100
AcDbArc
 50
20.26853458426396
 51
118.9550243718521
  0
ARC
  5
4F2
330
1F
100
AcDbEntity
  8
Sichtbare_Kanten_TC_020513_DIN_
  6
Continuous
 62
     7
100
AcDbCircle
 10
226.6174459547218
 20
146.0328715776574
 30
0.0
 40
0.5000000000004682
100
AcDbArc
 50
325.2685345842064
 51
20.26853458425865
  0
ARC
  5
4F3
330
1F
100
AcDbEntity
  8
Sichtbare_Kanten_TC_020513_DIN_
  6
Continuous
 62
     7
100
AcDbCircle
 10
221.7994836598508
 20
97.92287157765733
 30
0.0
 40
15.13999999999598
100
AcDbArc
 50
0.0
 51
180.0
  0
ARC
  5
4F4
330
1F
100
AcDbEntity
  8
Sichtbare_Kanten_TC_020513_DIN_
  6
Continuous
 62
     7
100
AcDbCircle
 10
244.5994836598488
 20
127.5328715776574
 30
0.0
 40
8.0
100
AcDbArc
 50
0.0
 51
90.0
  0
ARC
  5
4F5
330
1F
100
AcDbEntity
  8
Sichtbare_Kanten_TC_020513_DIN_
  6
Continuous
 62
     7
100
AcDbCircle
 10
231.7994836598488
 20
136.0328715776574
 30
0.0
 40
0.5000000000007059
100
AcDbArc
 50
220.0290181764856
 51
270.0
  0
ARC
  5
4F6
330
1F
100
AcDbEntity
  8
Sichtbare_Kanten_TC_020513_DIN_
  6
Continuous
 62
     7
100
AcDbCircle
 10
216.1022483229168
 20
122.8477738238673
 30
0.0
 40
19.99999999999995
100
AcDbArc
 50
40.02901817645245
 51
64.00779443620709
  0
ARC
  5
4F7
330
1F
100
AcDbEntity
  8
Sichtbare_Kanten_TC_020513_DIN_
  6
Continuous
 62
     7
100
AcDbCircle
 10
221.7994836598478
 20
134.5328715776574
 30
0.0
 40
7.000000000000659
100
AcDbArc
 50
64.0077944361978
 51
180.0
  0
ARC
  5
4F8
330
1F
100
AcDbEntity
  8
Sichtbare_Kanten_TC_020513_DIN_
  6
Continuous
 62
     7
100
AcDbCircle
 10
215.2994836598488
 20
121.0328715776574
 30
0.0
 40
0.5
100
AcDbArc
 50
180.0
 51
251.6923269006802
  0
ARC
  5
4F9
330
1F
100
AcDbEntity
  8
Sichtbare_Kanten_TC_020513_DIN_
  6
Continuous
 62
     7
100
AcDbCircle
 10
219.8542178745648
 20
134.7989311530513
 30
0.0
 40
15.00000000000086
100
AcDbArc
 50
251.6923269007109
 51
334.1179484035668
  0
ARC
  5
4FA
330
1F
100
AcDbEntity
  8
Sichtbare_Kanten_TC_020513_DIN_
  6
Continuous
 62
     7
100
AcDbCircle
 10
233.7994836598488
 20
128.0328715776574
 30
0.0
 40
0.5
100
AcDbArc
 50
90.0
 51
154.1179484035659
  0
ARC
  5
4FB
330
1F
100
AcDbEntity
  8
Sichtbare_Kanten_TC_020513_DIN_
  6
Continuous
 62
     7
100
AcDbCircle
 10
244.5994836598488
 20
127.5328715776574
 30
0.0
 40
1.0
100
AcDbArc
 50
0.0
 51
90.0
  0
ARC
  5
4FC
330
1F
100
AcDbEntity
  8
Sichtbare_Kanten_TC_020513_DIN_
  6
Continuous
 62
     7
100
AcDbCircle
 10
245.5618287448448
 20
122.2162342750663
 30
0.0
 40
0.0999999999999943
100
AcDbArc
 50
90.0
 51
180.0
  0
ARC
  5
4FD
330
1F
100
AcDbEntity
  8
Sichtbare_Kanten_TC_020513_DIN_
  6
Continuous
 62
     7
100
AcDbCircle
 10
245.5618287448448
 20
122.2162342750663
 30
0.0
 40
1.5
100
AcDbArc
 50
90.0
 51
180.0
  0
ARC
  5
4FE
330
1F
100
AcDbEntity
  8
Stich_1-Linien_TC_020513_DIN_
  6
DASHED_SPACE
 62
     7
100
AcDbCircle
 10
218.7994836598488
 20
123.5328715776574
 30
0.0
 40
48.93394997172103
100
AcDbArc
 50
0.0
 51
48.76366840084921
  0
CIRCLE
  5
4FF
330
1F
100
AcDbEntity
  8
Sichtbare_Kanten_TC_020513_DIN_
  6
Continuous
 62
     7
100
AcDbCircle
 10
221.7994836598508
 20
97.92287157765733
 30
0.0
 40
10.3899999999999
  0
CIRCLE
  5
500
330
1F
100
AcDbEntity
  8
Sichtbare_Kanten_TC_020513_DIN_
  6
Continuous
 62
     7
100
AcDbCircle
 10
221.7994836598508
 20
97.92287157765733
 30
0.0
 40
13.38999999999598
  0
CIRCLE
  5
501
330
1F
100
AcDbEntity
  8
Sichtbare_Kanten_TC_020513_DIN_
  6
Continuous
 62
     7
100
AcDbCircle
 10
221.7994836598478
 20
134.5328715776574
 30
0.0
 40
4.700000000001012
  0
CIRCLE
  5
502
330
1F
100
AcDbEntity
  8
Sichtbare_Kanten_TC_020513_DIN_
  6
Continuous
 62
     7
100
AcDbCircle
 10
218.7994836598488
 20
123.5328715776574
 30
0.0
 40
1.75
  0
SPLINE
  5
503
330
1F
100
AcDbEntity
  8
Sichtbare_Kanten_TC_020513_DIN_
  6
Continuous
 62
     7
100
AcDbSpline
210
0.0
220
0.0
230
1.0
 70
     8
 71
     3
 72
    19
 73
    15
 74
    13
 42
0.000000001
 43
0.0000000001
 44
0.00000001
 40
0.0
 40
0.0
 40
0.0
 40
0.0
 40
0.3474606674141802
 40
0.6949175350291448
 40
0.8665696488941199
 40
1.038221191655075
 40
1.20748486138949
 40
1.376745209809256
 40
1.543251855853161
 40
1.709751057159738
 40
1.873443934533005
 40
2.03714733610877
 40
2.278188137687271
 40
2.518986528946278
 40
2.518986528946278
 40
2.518986528946278
 40
2.518986528946278
 10
146.1311044671198
 20
132.8901670054143
 30
0.0
 10
146.2470362370324
 20
132.8954239678064
 30
0.0
 10
146.4788985078809
 20
132.9059378497753
 30
0.0
 10
146.7609703140515
 20
132.9770111674877
 30
0.0
 10
146.9767544158854
 20
133.0575781433061
 30
0.0
 10
147.131491164199
 20
133.1305719565508
 30
0.0
 10
147.2789679530572
 20
133.2156181265972
 30
0.0
 10
147.4173960593772
 20
133.3117778534634
 30
0.0
 10
147.5464063472091
 20
133.418809547832
 30
0.0
 10
147.6643276372975
 20
133.5353168594065
 30
0.0
 10
147.7709913628394
 20
133.6610533245421
 30
0.0
 10
147.8798665331689
 20
133.8162894829911
 30
0.0
 10
147.9850002494402
 20
134.0053119382418
 30
0.0
 10
148.0369795509503
 20
134.1575582740907
 30
0.0
 10
148.0629561196978
 20
134.2336431474683
 30
0.0
 11
146.1311044671198
 21
132.8901670054143
 31
0.0
 11
146.4774837864094
 21
132.9175582916539
 31
0.0
 11
146.8151447537706
 21
132.9994811002098
 31
0.0
 11
146.9758533729187
 21
133.0597902046108
 31
0.0
 11
147.1311044671192
 21
133.1330114450449
 31
0.0
 11
147.2777017750786
 21
133.2176247972901
 31
0.0
 11
147.4166796864925
 21
133.3142384914582
 31
0.0
 11
147.5447892577421
 21
133.4205982637905
 31
0.0
 11
147.6631933533576
 21
133.537655747349
 31
0.0
 11
147.7689896586924
 21
133.6625657157215
 31
0.0
 11
147.8631552746881
 21
133.7964747924513
 31
0.0
 11
147.9784096924154
 21
134.008175260767
 31
0.0
 11
148.0629561196978
 21
134.2336431474683
 31
0.0
  0
SPLINE
  5
504
330
1F
100
AcDbEntity
  8
Sichtbare_Kanten_TC_020513_DIN_
  6
Continuous
 62
     7
100
AcDbSpline
210
0.0
220
0.0
230
1.0
 70
     8
 71
     3
 72
    19
 73
    15
 74
    13
 42
0.000000001
 43
0.0000000001
 44
0.00000001
 40
0.0
 40
0.0
 40
0.0
 40
0.0
 40
0.3474606674141802
 40
0.6949175350291514
 40
0.8665696488941066
 40
1.038221191655086
 40
1.207484861389486
 40
1.376745209809253
 40
1.54325185585314
 40
1.709751057159736
 40
1.873443934532959
 40
2.037147336108724
 40
2.278188137687251
 40
2.518986528946284
 40
2.518986528946284
 40
2.518986528946284
 40
2.518986528946284
 10
146.1311044671198
 20
132.2985014389773
 30
0.0
 10
146.2470362370324
 20
132.3037584013694
 30
0.0
 10
146.4788985078809
 20
132.3142722833383
 30
0.0
 10
146.7609703140515
 20
132.3853456010508
 30
0.0
 10
146.9767544158854
 20
132.4659125768691
 30
0.0
 10
147.1314911641989
 20
132.5389063901138
 30
0.0
 10
147.2789679530572
 20
132.6239525601602
 30
0.0
 10
147.4173960593772
 20
132.7201122870264
 30
0.0
 10
147.5464063472091
 20
132.827143981395
 30
0.0
 10
147.6643276372974
 20
132.9436512929694
 30
0.0
 10
147.7709913628395
 20
133.0693877581051
 30
0.0
 10
147.8798665331688
 20
133.224623916554
 30
0.0
 10
147.9850002494402
 20
133.4136463718048
 30
0.0
 10
148.0369795509503
 20
133.5658927076538
 30
0.0
 10
148.0629561196978
 20
133.6419775810313
 30
0.0
 11
146.1311044671198
 21
132.2985014389773
 31
0.0
 11
146.4774837864094
 21
132.3258927252169
 31
0.0
 11
146.8151447537706
 21
132.4078155337728
 31
0.0
 11
146.9758533729187
 21
132.4681246381737
 31
0.0
 11
147.1311044671192
 21
132.541345878608
 31
0.0
 11
147.2777017750786
 21
132.6259592308531
 31
0.0
 11
147.4166796864925
 21
132.7225729250212
 31
0.0
 11
147.5447892577421
 21
132.8289326973535
 31
0.0
 11
147.6631933533576
 21
132.945990180912
 31
0.0
 11
147.7689896586924
 21
133.0709001492845
 31
0.0
 11
147.8631552746881
 21
133.2048092260142
 31
0.0
 11
147.9784096924154
 21
133.4165096943299
 31
0.0
 11
148.0629561196978
 21
133.6419775810313
 31
0.0
  0
SPLINE
  5
505
330
1F
100
AcDbEntity
  8
Sichtbare_Kanten_TC_020513_DIN_
  6
Continuous
 62
     7
100
AcDbSpline
210
0.0
220
0.0
230
1.0
 70
     8
 71
     3
 72
    19
 73
    15
 74
    13
 42
0.000000001
 43
0.0000000001
 44
0.00000001
 40
0.0
 40
0.0
 40
0.0
 40
0.0
 40
0.3221862205370644
 40
0.6443862618344187
 40
0.8094705328398415
 40
0.9745562229282947
 40
1.142463280812089
 40
1.310374909567134
 40
1.4808959317739
 40
1.651417687594167
 40
1.824033462668712
 40
1.996661195040776
 40
2.257865073019287
 40
2.518894987889102
 40
2.518894987889102
 40
2.518894987889102
 40
2.518894987889102
 10
51.54448271425071
 20
133.6419775810313
 30
0.0
 10
51.58069637712847
 20
133.5405432603928
 30
0.0
 10
51.65312526985154
 20
133.3376702733574
 30
0.0
 10
51.80251691628503
 20
133.109979829849
 30
0.0
 10
51.94287059312159
 20
132.9438035912899
 30
0.0
 10
52.06121776417692
 20
132.826986756476
 30
0.0
 10
52.18986653396968
 20
132.7202527138269
 30
0.0
 10
52.32864654629746
 20
132.6238397268968
 30
0.0
 10
52.4757806992571
 20
132.5389805326426
 30
0.0
 10
52.63083111305106
 20
132.4659187302173
 30
0.0
 10
52.79198805110326
 20
132.4054168292471
 30
0.0
 10
52.98656162639244
 20
132.3501610386394
 30
0.0
 10
53.21510190078064
 20
132.3074175465778
 30
0.0
 10
53.3892762177933
 20
132.3014728098674
 30
0.0
 10
53.47633436682878
 20
132.2985014389773
 30
0.0
 11
51.54448271425071
 21
133.6419775810313
 31
0.0
 11
51.66474712544696
 21
133.343078880317
 31
0.0
 11
51.83803027825089
 21
133.0714434315994
 31
0.0
 11
51.94472449100295
 21
132.9454705702251
 31
0.0
 11
52.06212080445577
 21
132.8294042489392
 31
0.0
 11
52.19131368456312
 21
132.7221569642245
 31
0.0
 11
52.32918149412675
 21
132.626309260039
 31
0.0
 11
52.47686874569546
 21
132.5410690408446
 31
0.0
 11
52.63109784334747
 21
132.4683294033645
 31
0.0
 11
52.79270753456466
 21
132.407678651357
 31
0.0
 11
52.95869627662383
 21
132.3602648169201
 31
0.0
 11
53.21576236372258
 21
132.3139561435747
 31
0.0
 11
53.47633436682878
 21
132.2985014389773
 31
0.0
  0
SPLINE
  5
506
330
1F
100
AcDbEntity
  8
Sichtbare_Kanten_TC_020513_DIN_
  6
Continuous
 62
     7
100
AcDbSpline
210
0.0
220
0.0
230
1.0
 70
     8
 71
     3
 72
    19
 73
    15
 74
    13
 42
0.000000001
 43
0.0000000001
 44
0.00000001
 40
0.0
 40
0.0
 40
0.0
 40
0.0
 40
0.3221862205369483
 40
0.6443862618341158
 40
0.8094705328393401
 40
0.9745562229277336
 40
1.142463280811679
 40
1.310374909566908
 40
1.480895931773724
 40
1.651417687594009
 40
1.824033462668544
 40
1.996661195040587
 40
2.257865073019115
 40
2.518894987889032
 40
2.518894987889032
 40
2.518894987889032
 40
2.518894987889032
 10
51.54448271425071
 20
134.2336431474683
 30
0.0
 10
51.58069637712846
 20
134.1322088268298
 30
0.0
 10
51.65312526985152
 20
133.9293358397946
 30
0.0
 10
51.80251691628487
 20
133.7016453962862
 30
0.0
 10
51.9428705931216
 20
133.5354691577274
 30
0.0
 10
52.06121776417699
 20
133.4186523229137
 30
0.0
 10
52.18986653396972
 20
133.3119182802644
 30
0.0
 10
52.32864654629741
 20
133.2155052933339
 30
0.0
 10
52.47578069925707
 20
133.1306460990797
 30
0.0
 10
52.63083111305104
 20
133.0575842966543
 30
0.0
 10
52.79198805110327
 20
132.9970823956842
 30
0.0
 10
52.98656162639246
 20
132.9418266050766
 30
0.0
 10
53.21510190078065
 20
132.8990831130148
 30
0.0
 10
53.38927621779337
 20
132.8931383763044
 30
0.0
 10
53.47633436682889
 20
132.8901670054143
 30
0.0
 11
51.54448271425071
 21
134.2336431474683
 31
0.0
 11
51.66474712544693
 21
133.9347444467541
 31
0.0
 11
51.83803027825083
 21
133.6631089980367
 31
0.0
 11
51.94472449100292
 21
133.5371361366627
 31
0.0
 11
52.06212080445576
 21
133.4210698153769
 31
0.0
 11
52.19131368456312
 21
133.313822530662
 31
0.0
 11
52.32918149412676
 21
133.2179748264761
 31
0.0
 11
52.47686874569546
 21
133.1327346072816
 31
0.0
 11
52.63109784334746
 21
133.0599949698015
 31
0.0
 11
52.79270753456468
 21
132.9993442177941
 31
0.0
 11
52.95869627662383
 21
132.9519303833572
 31
0.0
 11
53.21576236372258
 21
132.9056217100118
 31
0.0
 11
53.47633436682889
 21
132.8901670054143
 31
0.0
  0
LWPOLYLINE
  5
507
330
1F
100
AcDbEntity
  8
Sichtbare_Kanten_TC_020513_DIN_
  6
Continuous
 62
     7
100
AcDbPolyline
 90
       25
 70
     0
 43
0.0
 10
49.91593827378568
 20
139.1503486370213
 10
49.90611065995518
 20
139.1967130040293
 10
49.89628304612455
 20
139.2434341048363
 10
49.88646496903721
 20
139.2905003165373
 10
49.8766468919498
 20
139.3378994201783
 10
49.8668288148624
 20
139.3856197928554
 10
49.857010737775
 20
139.4336495136383
 10
49.84719742905918
 20
139.4819760655524
 10
49.83737935197178
 20
139.5305881237153
 10
49.82756127488437
 20
139.5794734691743
 10
49.81773842942539
 20
139.6286198829774
 10
49.80791558396641
 20
139.6780154441964
 10
49.79808797013578
 20
139.7276488279473
 10
49.78826035630527
 20
139.7774830793503
 10
49.77843274247471
 20
139.8274800514343
 10
49.7686146653873
 20
139.8776284193163
 10
49.7587965882999
 20
139.9279150699743
 10
49.7489785112125
 20
139.9783268903853
 10
49.7391604341251
 20
140.0288525556693
 10
49.72934712540928
 20
140.0794789528023
 10
49.71952904832187
 20
140.1301929687623
 10
49.70971097123447
 20
140.1809826826223
 10
49.69988812577549
 20
140.2318355774054
 10
49.6900652803165
 20
140.2827385400893
 10
49.68023766648588
 20
140.3336796497473
  0
LWPOLYLINE
  5
508
330
1F
100
AcDbEntity
  8
Sichtbare_Kanten_TC_020513_DIN_
  6
Continuous
 62
     7
100
AcDbPolyline
 90
       25
 70
     0
 43
0.0
 10
49.68023766648588
 20
140.3336796497473
 10
49.6900652803165
 20
140.3082093929413
 10
49.69988812577549
 20
140.2827576135763
 10
49.70971097123447
 20
140.2573314642083
 10
49.71952904832187
 20
140.2319363092553
 10
49.72934712540928
 20
140.2065793012743
 10
49.7391604341251
 20
140.1812664007314
 10
49.7489785112125
 20
140.1560035680894
 10
49.7587965882999
 20
140.1307973598603
 10
49.7686146653873
 20
140.1056543325553
 10
49.77843274247471
 20
140.0805798505913
 10
49.78826035630527
 20
140.0555816625723
 10
49.79808797013578
 20
140.0306645368703
 10
49.80791558396641
 20
140.0058475469713
 10
49.81773842942539
 20
139.9811497663623
 10
49.82756127488437
 20
139.9565765594613
 10
49.83737935197178
 20
139.9321338867314
 10
49.84719742905918
 20
139.9078277086383
 10
49.857010737775
 20
139.8836645816934
 10
49.8668288148624
 20
139.8596498703134
 10
49.8766468919498
 20
139.8357895349623
 10
49.88646496903721
 20
139.8120901321533
 10
49.89628304612455
 20
139.7885570263033
 10
49.90611065995518
 20
139.7651961778763
 10
49.91593827378568
 20
139.7420141433844
  0
LWPOLYLINE
  5
509
330
1F
100
AcDbEntity
  8
Sichtbare_Kanten_TC_020513_DIN_
  6
Continuous
 62
     7
100
AcDbPolyline
 90
       25
 70
     0
 43
0.0
 10
36.84573640000639
 20
152.1148518060813
 10
36.84231270921049
 20
152.1237805818683
 10
36.83903683793369
 20
152.1327081655623
 10
36.83590878617588
 20
152.1416357492574
 10
36.83291901719389
 20
152.1505633329514
 10
36.83007706773111
 20
152.1594897245533
 10
36.82737816941557
 20
152.1684173082473
 10
36.82482709061918
 20
152.1773436998493
 10
36.82241906297026
 20
152.1862712835433
 10
36.82015885484037
 20
152.1951976751454
 10
36.81804169785801
 20
152.2041252588393
 10
36.81606759202299
 20
152.2130540346273
 10
36.81424130570707
 20
152.2219828104144
 10
36.81256283891031
 20
152.2309103941093
 10
36.81102742326078
 20
152.2398391698963
 10
36.80963982713047
 20
152.2487667535903
 10
36.80840005051908
 20
152.2576943372853
 10
36.80730332505527
 20
152.2666207288864
 10
36.80634965073887
 20
152.2755483125813
 10
36.80554856431309
 20
152.2844747041823
 10
36.80489052903477
 20
152.2934010957843
 10
36.80437554490391
 20
152.3023286794793
 10
36.80401314866367
 20
152.3112562631733
 10
36.8037938035709
 20
152.3201850389603
 10
36.80371750962559
 20
152.3291126226553
  0
LWPOLYLINE
  5
50A
330
1F
100
AcDbEntity
  8
Sichtbare_Kanten_TC_020513_DIN_
  6
Continuous
 62
     7
100
AcDbPolyline
 90
       25
 70
     0
 43
0.0
 10
38.20372094285307
 20
152.3291126226553
 10
38.2037543214542
 20
152.3201850389603
 10
38.20386399400059
 20
152.3112562631733
 10
38.20404996049228
 20
152.3023286794793
 10
38.20430268418608
 20
152.2934010957843
 10
38.20463170182529
 20
152.2844747041823
 10
38.20503701340977
 20
152.2755483125813
 10
38.20550908219639
 20
152.2666207288864
 10
38.20605744492826
 20
152.2576943372853
 10
38.20668210160557
 20
152.2487667535903
 10
38.20737351548496
 20
152.2398391698963
 10
38.20814122330967
 20
152.2309103941093
 10
38.20898045670811
 20
152.2219828104144
 10
38.20989598405191
 20
152.2130540346273
 10
38.21087826859781
 20
152.2041252588393
 10
38.21193684708896
 20
152.1951976751454
 10
38.21307171952549
 20
152.1862712835433
 10
38.21427334916416
 20
152.1773436998493
 10
38.21555127274809
 20
152.1684173082473
 10
38.21689595353428
 20
152.1594897245533
 10
38.2183216966373
 20
152.1505633329514
 10
38.21981419694248
 20
152.1416357492574
 10
38.22137822282139
 20
152.1327081655623
 10
38.22301854264561
 20
152.1237805818683
 10
38.22472561967197
 20
152.1148518060813
  0
LWPOLYLINE
  5
50B
330
1F
100
AcDbEntity
  8
Sichtbare_Kanten_TC_020513_DIN_
  6
Continuous
 62
     7
100
AcDbPolyline
 90
       25
 70
     0
 43
0.0
 10
37.23465909135166
 20
151.8938568567403
 10
37.20524300706205
 20
151.8943956827293
 10
37.17681874406156
 20
151.8960157369743
 10
37.14940537583647
 20
151.8987217878463
 10
37.12300290238676
 20
151.9025186037193
 10
37.09763039719877
 20
151.9074085687763
 10
37.07329262864408
 20
151.9133976434833
 10
37.04999913346586
 20
151.9204894041183
 10
37.02775944840727
 20
151.9286886190543
 10
37.00659264695469
 20
151.9379988645683
 10
36.98650826585117
 20
151.9484201406603
 10
36.96792115342436
 20
151.9597021078234
 10
36.95096959245029
 20
151.9716158842213
 10
36.93557252061186
 20
151.9840255712634
 10
36.92165364396396
 20
151.9967976545463
 10
36.90912713181797
 20
152.0097974275713
 10
36.89791192185697
 20
152.0228901838424
 10
36.88792695176431
 20
152.0359424089553
 10
36.87909592759428
 20
152.0488182043203
 10
36.87133301865879
 20
152.0613840555313
 10
36.86455716264067
 20
152.0735040640003
 10
36.85869206559477
 20
152.0850459074143
 10
36.8536566652042
 20
152.0958736871843
 10
36.84936036240879
 20
152.1058538889053
 10
36.84573640000639
 20
152.1148518060813
  0
LWPOLYLINE
  5
50C
330
1F
100
AcDbEntity
  8
Sichtbare_Kanten_TC_020513_DIN_
  6
Continuous
 62
     7
100
AcDbPolyline
 90
       25
 70
     0
 43
0.0
 10
38.22472561967197
 20
152.1148518060813
 10
38.22655190598789
 20
152.1057680582173
 10
38.22869290482817
 20
152.0957890485893
 10
38.23117722642246
 20
152.0850339864853
 10
38.23405732285801
 20
152.0736268495683
 10
38.23737134110746
 20
152.0616880392203
 10
38.2411574281436
 20
152.0493391489153
 10
38.24545849931059
 20
152.0367029642233
 10
38.2503127015811
 20
152.0238998865253
 10
38.25576295029936
 20
152.0110527013903
 10
38.26184739243809
 20
151.9982830022933
 10
38.26860894334141
 20
151.9857123827103
 10
38.27609051835356
 20
151.9734624361163
 10
38.28433026444736
 20
151.9616547559863
 10
38.29336632859526
 20
151.9504121278883
 10
38.30317010056797
 20
151.9399276708734
 10
38.31360329758951
 20
151.9304505323533
 10
38.3246563829166
 20
151.9220117067463
 10
38.33633889329258
 20
151.9146314596303
 10
38.34866990220365
 20
151.9083312486773
 10
38.36162079942051
 20
151.9031408762103
 10
38.37515820634189
 20
151.8990901445513
 10
38.38926781785307
 20
151.8961873983504
 10
38.4039496339542
 20
151.8944409822593
 10
38.41918934953037
 20
151.8938568567403
  0
LWPOLYLINE
  5
50D
330
1F
100
AcDbEntity
  8
Sichtbare_Kanten_TC_020513_DIN_
  6
Continuous
 62
     7
100
AcDbPolyline
 90
       25
 70
     0
 43
0.0
 10
50.51924695145908
 20
151.2569406961563
 10
50.54687489640537
 20
151.3904312585953
 10
50.57445515763578
 20
151.5208557581073
 10
50.6019972718936
 20
151.6479745840203
 10
50.6295298494083
 20
151.7715481256613
 10
50.65705765855137
 20
151.8913355802663
 10
50.6846093095524
 20
152.0070997213493
 10
50.71219910752598
 20
152.1185985540513
 10
50.73984135758695
 20
152.2255793546803
 10
50.76745499741861
 20
152.3274603819013
 10
50.79502572190586
 20
152.4239102338914
 10
50.82256783616367
 20
152.5147632097373
 10
50.85009564530668
 20
152.5998536085253
 10
50.87762822282139
 20
152.6790157293443
 10
50.90518464219389
 20
152.7520862554673
 10
50.93278397691068
 20
152.8188994859823
 10
50.96043576371488
 20
152.8792658781173
 10
50.98806847703276
 20
152.9328790640003
 10
51.01569165360746
 20
152.9796126817833
 10
51.04331959855381
 20
153.0193761324053
 10
51.07097138535801
 20
153.0520788168084
 10
51.09860886704746
 20
153.0775896047713
 10
51.12623681199381
 20
153.0958500837453
 10
51.15385998856851
 20
153.1068280672203
 10
51.18150700700107
 20
153.1104937528733
  0
LWPOLYLINE
  5
50E
330
1F
100
AcDbEntity
  8
Sichtbare_Kanten_TC_020513_DIN_
  6
Continuous
 62
     7
100
AcDbPolyline
 90
       25
 70
     0
 43
0.0
 10
51.18150700700107
 20
151.7104938959243
 10
51.15385045182529
 20
151.7086592649583
 10
51.1262511171085
 20
151.7031756376393
 10
51.09868516099277
 20
151.6940704321033
 10
51.07114304673496
 20
151.6813746427663
 10
51.04359616410557
 20
151.6651168798573
 10
51.01603974473301
 20
151.6453245615133
 10
50.98844517838779
 20
151.6220286821493
 10
50.96079815995518
 20
151.5952578519943
 10
50.93313206803617
 20
151.5650990938313
 10
50.90552319657627
 20
151.5317204927573
 10
50.87795724046049
 20
151.4952090715533
 10
50.8504103578311
 20
151.4556447004443
 10
50.82286824357328
 20
151.4131108259323
 10
50.79531182420078
 20
151.3676897024284
 10
50.76772679459867
 20
151.3194623922474
 10
50.74008931290928
 20
151.2685123418933
 10
50.71241845261881
 20
151.2149826025134
 10
50.6847952760441
 20
151.1591795419823
 10
50.65721024644199
 20
151.1012402509813
 10
50.62964905869779
 20
151.0412851308953
 10
50.60208787095365
 20
150.9794357751974
 10
50.57451237809477
 20
150.9158102010854
 10
50.54690350663486
 20
150.8505311941273
 10
50.51924695145908
 20
150.7837179636123
  0
LWPOLYLINE
  5
50F
330
1F
100
AcDbEntity
  8
Sichtbare_Kanten_TC_020513_DIN_
  6
Continuous
 62
     7
100
AcDbPolyline
 90
       25
 70
     0
 43
0.0
 10
50.10781754624668
 20
150.3104940389754
 10
50.11802186143217
 20
150.3242507909903
 10
50.129547015546
 20
150.3401151632433
 10
50.1422833360416
 20
150.3580573534133
 10
50.15611638200107
 20
150.3780547117363
 10
50.17094124924955
 20
150.4000786279803
 10
50.18664826524076
 20
150.4241028761033
 10
50.20312775742826
 20
150.4501012300613
 10
50.2202748216373
 20
150.4780486559043
 10
50.23797024857817
 20
150.5079165434013
 10
50.25611390244779
 20
150.5396810506943
 10
50.27459134232817
 20
150.5733135675554
 10
50.29329766404447
 20
150.6087878679403
 10
50.31212319505039
 20
150.6460789178973
 10
50.33095826279936
 20
150.6851592992904
 10
50.34968842637358
 20
150.7260039781693
 10
50.36820878159818
 20
150.7685843443043
 10
50.38685788285557
 20
150.8138922189843
 10
50.40618886124906
 20
150.8637085889943
 10
50.4259108461124
 20
150.9180489515433
 10
50.44570435654936
 20
150.9768954252373
 10
50.46525468003568
 20
151.0402277444963
 10
50.48423756730381
 20
151.1080256437423
 10
50.5023383058292
 20
151.1802688573963
 10
50.51924695145908
 20
151.2569406961563
  0
LWPOLYLINE
  5
510
330
1F
100
AcDbEntity
  8
Sichtbare_Kanten_TC_020513_DIN_
  6
Continuous
 62
     7
100
AcDbPolyline
 90
       25
 70
     0
 43
0.0
 10
50.51924695145908
 20
150.7837179636123
 10
50.51340569627109
 20
150.7698265051014
 10
50.50646771561918
 20
150.7541790937553
 10
50.49832810532865
 20
150.7368710970053
 10
50.48888672959629
 20
150.7180026506553
 10
50.478029147504
 20
150.6976715063223
 10
50.46565522324858
 20
150.6759754156243
 10
50.45166005265537
 20
150.6530145143633
 10
50.43593873154936
 20
150.6288853620654
 10
50.41837681901279
 20
150.6036857103473
 10
50.39887894761387
 20
150.5775168871053
 10
50.37733544480631
 20
150.5504742597703
 10
50.35412301194486
 20
150.5232277845513
 10
50.33055295121488
 20
150.4973402952323
 10
50.30688752305326
 20
150.4729035829674
 10
50.28331746232328
 20
150.4499271844993
 10
50.26004304063139
 20
150.4284206365713
 10
50.2372597612125
 20
150.4083958601123
 10
50.21515835892978
 20
150.3898600076803
 10
50.19393433701816
 20
150.3728238081103
 10
50.1737831987125
 20
150.3572979902394
 10
50.15490044724771
 20
150.3432920908103
 10
50.1374815858585
 20
150.3308168386583
 10
50.12172211777988
 20
150.3198805784353
 10
50.10781754624668
 20
150.3104940389754
  0
LWPOLYLINE
  5
511
330
1F
100
AcDbEntity
  8
Sichtbare_Kanten_TC_020513_DIN_
  6
Continuous
 62
     7
100
AcDbPolyline
 90
       25
 70
     0
 43
0.0
 10
149.4996212877018
 20
150.3104940389754
 10
149.4857167161688
 20
150.3198805784353
 10
149.4699572480898
 20
150.3308168386583
 10
149.4525383867008
 20
150.3432920908103
 10
149.4336556352358
 20
150.3572979902394
 10
149.4135044969298
 20
150.3728238081103
 10
149.3922804750188
 20
150.3898600076803
 10
149.3701790727358
 20
150.4083958601123
 10
149.3473957933168
 20
150.4284206365713
 10
149.3241213716248
 20
150.4499271844993
 10
149.3005513108948
 20
150.4729035829674
 10
149.2768858827338
 20
150.4973402952323
 10
149.2533158220038
 20
150.5232277845513
 10
149.2301033891418
 20
150.5504742597703
 10
149.2085598863348
 20
150.5775168871053
 10
149.1890620149358
 20
150.6036857103473
 10
149.1715001023988
 20
150.6288853620654
 10
149.1557787812928
 20
150.6530145143633
 10
149.1417836106998
 20
150.6759754156243
 10
149.1294096864448
 20
150.6976715063223
 10
149.1185521043518
 20
150.7180026506553
 10
149.1091107286198
 20
150.7368710970053
 10
149.1009711183288
 20
150.7541790937553
 10
149.0940331376777
 20
150.7698265051014
 10
149.0881918824888
 20
150.7837179636123
  0
LWPOLYLINE
  5
512
330
1F
100
AcDbEntity
  8
Sichtbare_Kanten_TC_020513_DIN_
  6
Continuous
 62
     7
100
AcDbPolyline
 90
       25
 70
     0
 43
0.0
 10
149.0881918824888
 20
150.7837179636123
 10
149.0605353273137
 20
150.8505252336623
 10
149.0329359925968
 20
150.9157887434133
 10
149.0053700364808
 20
150.9793880914813
 10
148.9778279222228
 20
151.0412040685783
 10
148.9502858079658
 20
151.1011174654133
 10
148.9227246202218
 20
151.1590090726973
 10
148.8951348222478
 20
151.2147596811423
 10
148.8674878038148
 20
151.2682488893633
 10
148.8398217118958
 20
151.3192668890123
 10
148.8122128404358
 20
151.3675442670943
 10
148.7846421159488
 20
151.4129963850143
 10
148.7570952333198
 20
151.4555445646413
 10
148.7295531190618
 20
151.4951089357503
 10
148.7020014680608
 20
151.5316120123033
 10
148.6744116700868
 20
151.5649727319843
 10
148.6467789567687
 20
151.5951136087543
 10
148.6191080964788
 20
151.6219261621604
 10
148.5914849199038
 20
151.6452601884963
 10
148.5638998903018
 20
151.6650787328843
 10
148.5363339341858
 20
151.6813555692803
 10
148.5087727464418
 20
151.6940632795463
 10
148.4811972535828
 20
151.7031732534533
 10
148.4535931504948
 20
151.7086592649583
 10
148.4259318269468
 20
151.7104938959243
  0
LWPOLYLINE
  5
513
330
1F
100
AcDbEntity
  8
Sichtbare_Kanten_TC_020513_DIN_
  6
Continuous
 62
     7
100
AcDbPolyline
 90
       25
 70
     0
 43
0.0
 10
149.0881918824888
 20
151.2569406961563
 10
149.1051005281188
 20
151.1802688573963
 10
149.1232012666448
 20
151.1080244516503
 10
149.1421841539128
 20
151.0402277444963
 10
149.1617344773988
 20
150.9768954252373
 10
149.1815279878358
 20
150.9180489515433
 10
149.2012499726998
 20
150.8637085889943
 10
149.2205809510928
 20
150.8138922189843
 10
149.2392300523498
 20
150.7685843443043
 10
149.2577504075748
 20
150.7260039781693
 10
149.2764805711488
 20
150.6851592992904
 10
149.2953156388978
 20
150.6460789178973
 10
149.3141411699038
 20
150.6087878679403
 10
149.3328474916198
 20
150.5733135675554
 10
149.3513249315008
 20
150.5396810506943
 10
149.3694685853698
 20
150.5079165434013
 10
149.3871640123108
 20
150.4780486559043
 10
149.4043110765198
 20
150.4501012300613
 10
149.4207905687078
 20
150.4241028761033
 10
149.4364975846988
 20
150.4000786279803
 10
149.4513224519468
 20
150.3780547117363
 10
149.4651554979068
 20
150.3580573534133
 10
149.4778918184028
 20
150.3401151632433
 10
149.4894169725158
 20
150.3242507909903
 10
149.4996212877018
 20
150.3104940389754
  0
LWPOLYLINE
  5
514
330
1F
100
AcDbEntity
  8
Sichtbare_Kanten_TC_020513_DIN_
  6
Continuous
 62
     7
100
AcDbPolyline
 90
       25
 70
     0
 43
0.0
 10
148.4259318269468
 20
153.1104937528733
 10
148.4535645402648
 20
153.1068316434983
 10
148.4811400331238
 20
153.0958834623463
 10
148.5086869157538
 20
153.0777016615043
 10
148.5362147248968
 20
153.0523434614303
 10
148.5637473024108
 20
153.0198636983994
 10
148.5912989534118
 20
152.9803160165913
 10
148.6188839830138
 20
152.9337588285573
 10
148.6465262330758
 20
152.8802517389424
 10
148.6741446412788
 20
152.8200725053913
 10
148.7017105973937
 20
152.7534559702043
 10
148.7292527116518
 20
152.6805582975513
 10
148.7567805207948
 20
152.6015368436943
 10
148.7843130983098
 20
152.5165465807083
 10
148.8118742860538
 20
152.4257472490433
 10
148.8394736207708
 20
152.3292938207754
 10
148.8671206392028
 20
152.2273865675093
 10
148.8947533525208
 20
152.1205142473343
 10
148.9223765290957
 20
152.0089546178943
 10
148.9500092424138
 20
151.8929282163743
 10
148.9776562608468
 20
151.7726651167043
 10
149.0052985109078
 20
151.6486230825553
 10
149.0329216874818
 20
151.5211525892383
 10
149.0605496324288
 20
151.3905075525413
 10
149.0881918824888
 20
151.2569406961563
  0
LWPOLYLINE
  5
515
330
1F
100
AcDbEntity
  8
Sichtbare_Kanten_TC_020513_DIN_
  6
Continuous
 62
     7
100
AcDbPolyline
 90
       25
 70
     0
 43
0.0
 10
149.6915005601628
 20
139.7420141433844
 10
149.7013281739928
 20
139.7651961778763
 10
149.7111557878238
 20
139.7885570263033
 10
149.7209738649108
 20
139.8120901321533
 10
149.7307919419988
 20
139.8357895349623
 10
149.7406100190858
 20
139.8596498703134
 10
149.7504280961738
 20
139.8836645816934
 10
149.7602414048888
 20
139.9078277086383
 10
149.7700594819768
 20
139.9321338867314
 10
149.7798775590638
 20
139.9565765594613
 10
149.7897004045228
 20
139.9811497663623
 10
149.7995232499818
 20
140.0058475469713
 10
149.8093508638128
 20
140.0306645368703
 10
149.8191784776428
 20
140.0555816625723
 10
149.8290060914738
 20
140.0805798505913
 10
149.8388241685608
 20
140.1056543325553
 10
149.8486422456488
 20
140.1307973598603
 10
149.8584603227358
 20
140.1560035680894
 10
149.8682783998238
 20
140.1812664007314
 10
149.8780917085388
 20
140.2065793012743
 10
149.8879097856268
 20
140.2319363092553
 10
149.8977278627138
 20
140.2573314642083
 10
149.9075507081728
 20
140.2827576135763
 10
149.9173735536318
 20
140.3082093929413
 10
149.9272011674628
 20
140.3336796497473
  0
LWPOLYLINE
  5
516
330
1F
100
AcDbEntity
  8
Sichtbare_Kanten_TC_020513_DIN_
  6
Continuous
 62
     7
100
AcDbPolyline
 90
       25
 70
     0
 43
0.0
 10
149.9272011674628
 20
140.3336796497473
 10
149.9173735536318
 20
140.2827385400893
 10
149.9075507081728
 20
140.2318355774054
 10
149.8977278627138
 20
140.1809826826223
 10
149.8879097856268
 20
140.1301929687623
 10
149.8780917085388
 20
140.0794789528023
 10
149.8682783998238
 20
140.0288525556693
 10
149.8584603227358
 20
139.9783268903853
 10
149.8486422456488
 20
139.9279150699743
 10
149.8388241685608
 20
139.8776284193163
 10
149.8290060914738
 20
139.8274800514343
 10
149.8191784776428
 20
139.7774830793503
 10
149.8093508638128
 20
139.7276488279473
 10
149.7995232499818
 20
139.6780154441964
 10
149.7897004045228
 20
139.6286198829774
 10
149.7798775590638
 20
139.5794734691743
 10
149.7700594819768
 20
139.5305881237153
 10
149.7602414048888
 20
139.4819760655524
 10
149.7504280961738
 20
139.4336495136383
 10
149.7406100190858
 20
139.3856197928554
 10
149.7307919419988
 20
139.3378994201783
 10
149.7209738649108
 20
139.2905003165373
 10
149.7111557878238
 20
139.2434341048363
 10
149.7013281739928
 20
139.1967130040293
 10
149.6915005601628
 20
139.1503486370213
  0
LWPOLYLINE
  5
517
330
1F
100
AcDbEntity
  8
Sichtbare_Kanten_TC_020513_DIN_
  6
Continuous
 62
     7
100
AcDbPolyline
 90
       25
 70
     0
 43
0.0
 10
162.8037213243228
 20
152.3291126226553
 10
162.8036450303778
 20
152.3201850389603
 10
162.8034256852848
 20
152.3112562631733
 10
162.8030632890448
 20
152.3023286794793
 10
162.8025483049138
 20
152.2934010957843
 10
162.8018902696358
 20
152.2844747041823
 10
162.8010891832098
 20
152.2755483125813
 10
162.8001355088928
 20
152.2666207288864
 10
162.7990387834298
 20
152.2576943372853
 10
162.7977990068178
 20
152.2487667535903
 10
162.7964114106878
 20
152.2398391698963
 10
162.7948759950378
 20
152.2309103941093
 10
162.7931975282418
 20
152.2219828104144
 10
162.7913712419258
 20
152.2130540346273
 10
162.7893971360908
 20
152.2041252588393
 10
162.7872799791078
 20
152.1951976751454
 10
162.7850197709778
 20
152.1862712835433
 10
162.7826117433288
 20
152.1773436998493
 10
162.7800606645328
 20
152.1684173082473
 10
162.7773617662178
 20
152.1594897245533
 10
162.7745198167548
 20
152.1505633329514
 10
162.7715300477728
 20
152.1416357492574
 10
162.7684019960148
 20
152.1327081655623
 10
162.7651261247378
 20
152.1237805818683
 10
162.7617024339418
 20
152.1148518060813
  0
LWPOLYLINE
  5
518
330
1F
100
AcDbEntity
  8
Sichtbare_Kanten_TC_020513_DIN_
  6
Continuous
 62
     7
100
AcDbPolyline
 90
       25
 70
     0
 43
0.0
 10
161.3827132142768
 20
152.1148518060813
 10
161.3844202913028
 20
152.1237805818683
 10
161.3860606111268
 20
152.1327081655623
 10
161.3876246370058
 20
152.1416357492574
 10
161.3891171373108
 20
152.1505633329514
 10
161.3905428804138
 20
152.1594897245533
 10
161.3918875612008
 20
152.1684173082473
 10
161.3931654847838
 20
152.1773436998493
 10
161.3943671144228
 20
152.1862712835433
 10
161.3955019868598
 20
152.1951976751454
 10
161.3965605653508
 20
152.2041252588393
 10
161.3975428498968
 20
152.2130540346273
 10
161.3984583772398
 20
152.2219828104144
 10
161.3992976106388
 20
152.2309103941093
 10
161.4000653184638
 20
152.2398391698963
 10
161.4007567323428
 20
152.2487667535903
 10
161.4013813890198
 20
152.2576943372853
 10
161.4019297517518
 20
152.2666207288864
 10
161.4024018205388
 20
152.2755483125813
 10
161.4028071321228
 20
152.2844747041823
 10
161.4031361497618
 20
152.2934010957843
 10
161.4033888734558
 20
152.3023286794793
 10
161.4035748399478
 20
152.3112562631733
 10
161.4036845124938
 20
152.3201850389603
 10
161.4037178910958
 20
152.3291126226553
  0
LWPOLYLINE
  5
519
330
1F
100
AcDbEntity
  8
Sichtbare_Kanten_TC_020513_DIN_
  6
Continuous
 62
     7
100
AcDbPolyline
 90
       25
 70
     0
 43
0.0
 10
162.7617024339418
 20
152.1148518060813
 10
162.7580641664248
 20
152.1058217023973
 10
162.7537535585148
 20
152.0958081220753
 10
162.7486943162658
 20
152.0849445795184
 10
162.7428053773628
 20
152.0733693575033
 10
162.7360009111148
 20
152.0612135862473
 10
162.7282093919498
 20
152.0486167406203
 10
162.7193402208068
 20
152.0357099508413
 10
162.7093123353698
 20
152.0226314996843
 10
162.6980542100648
 20
152.0095160936483
 10
162.6854752458318
 20
151.9964972471363
 10
162.6714991487248
 20
151.9837120508323
 10
162.6560448564277
 20
151.9712940191393
 10
162.6390265382508
 20
151.9593802427413
 10
162.6203679002508
 20
151.9481054281363
 10
162.6003025926338
 20
151.9377389883163
 10
162.5791691697818
 20
151.9284823869834
 10
162.5569771684388
 20
151.9203320478563
 10
162.5337313569768
 20
151.9132808183793
 10
162.5094460405098
 20
151.9073275064593
 10
162.4841355241518
 20
151.9024661516313
 10
162.4577998079048
 20
151.8986931776173
 10
162.4304579652527
 20
151.8960038160454
 10
162.4021147645698
 20
151.8943932985434
 10
162.3727797425968
 20
151.8938568567403
  0
LWPOLYLINE
  5
51A
330
1F
100
AcDbEntity
  8
Sichtbare_Kanten_TC_020513_DIN_
  6
Continuous
 62
     7
100
AcDbPolyline
 90
       25
 70
     0
 43
0.0
 10
161.1882494844178
 20
151.8938568567403
 10
161.2025164521918
 20
151.8943658804063
 10
161.2162636674628
 20
151.8958869909413
 10
161.2294911302308
 20
151.8984094595083
 10
161.2421988404968
 20
151.9019213651783
 10
161.2543820298898
 20
151.9064143633013
 10
161.2660502351508
 20
151.9118777250413
 10
161.2771939195378
 20
151.9182983373763
 10
161.2878226197938
 20
151.9256690477493
 10
161.2979267991768
 20
151.9339767431384
 10
161.3074969209418
 20
151.9431999658713
 10
161.3165091432318
 20
151.9532838796743
 10
161.3249682344178
 20
151.9642010664113
 10
161.3328932679878
 20
151.9759276842243
 10
161.3402985490548
 20
151.9884434675343
 10
161.3471936143617
 20
152.0017233823903
 10
161.3535593904238
 20
152.0156517957813
 10
161.3592337526068
 20
152.0296886896263
 10
161.3642405427678
 20
152.0436016058093
 10
161.3686179078798
 20
152.0572188829543
 10
161.3724135316588
 20
152.0703688596853
 10
161.3756750978218
 20
152.0828798746233
 10
161.3784502900818
 20
152.0945790743003
 10
161.3807772554138
 20
152.1052936052443
 10
161.3827132142768
 20
152.1148518060813
  0
LWPOLYLINE
  5
51B
330
1F
100
AcDbEntity
  8
Sichtbare_Kanten_TC_020513_DIN_
  6
Continuous
 62
     7
100
AcDbPolyline
 90
       25
 70
     0
 43
0.0
 10
109.5140497840628
 20
122.3162344431053
 10
109.5166580833178
 20
122.3162296747333
 10
109.5195417560318
 20
122.3162117933403
 10
109.5226698077898
 20
122.3161724542743
 10
109.5260082639438
 20
122.3161068891653
 10
109.5295255340318
 20
122.3160055612694
 10
109.5331894315458
 20
122.3158625101213
 10
109.5369659818398
 20
122.3156717752583
 10
109.5408241904958
 20
122.3154250120294
 10
109.5447312749608
 20
122.3151150678764
 10
109.5486538566338
 20
122.3147359823354
 10
109.5525603450518
 20
122.3142806028493
 10
109.5564179576618
 20
122.3137417768603
 10
109.5601945079548
 20
122.3131111597183
 10
109.5638566173298
 20
122.3123839830523
 10
109.5673726953248
 20
122.3115519022113
 10
109.5707248605468
 20
122.3106029962663
 10
109.5739482797368
 20
122.3094991182453
 10
109.5769827522018
 20
122.3082223867544
 10
109.5797555602768
 20
122.3067549204003
 10
109.5821933902488
 20
122.3050847982533
 10
109.5842247165428
 20
122.3031905626423
 10
109.5857750333528
 20
122.3010507558953
 10
109.5867501653418
 20
122.2986749147543
 10
109.5870821632128
 20
122.2960999940993
  0
LWPOLYLINE
  5
51C
330
1F
100
AcDbEntity
  8
Sichtbare_Kanten_TC_020513_DIN_
  6
Continuous
 62
     7
100
AcDbPolyline
 90
       25
 70
     0
 43
0.0
 10
90.02035667073545
 20
122.2960999940993
 10
90.02049733769718
 20
122.2978106474053
 10
90.0210617936832
 20
122.2998038267263
 10
90.02225865495029
 20
122.3019913171893
 10
90.02412487637815
 20
122.3041203951003
 10
90.0264744914752
 20
122.3059848283893
 10
90.02920617234525
 20
122.3076036905413
 10
90.03225077760038
 20
122.3090103601583
 10
90.03557373654667
 20
122.3102382158403
 10
90.03911246430698
 20
122.3112991785173
 10
90.04280437600437
 20
122.3122099374893
 10
90.04658807885465
 20
122.3129836057794
 10
90.05042363774595
 20
122.3136380647783
 10
90.05434323918638
 20
122.3141971563463
 10
90.05831708085356
 20
122.3146704172263
 10
90.0623117841464
 20
122.3150649999743
 10
90.06629099023166
 20
122.3153868650563
 10
90.07022072446165
 20
122.3156443571213
 10
90.07406522404966
 20
122.3158434366353
 10
90.07778932225528
 20
122.3159924482473
 10
90.08135904443088
 20
122.3160985445144
 10
90.0847392238361
 20
122.3161688779954
 10
90.087894097684
 20
122.3162106012473
 10
90.0907890952808
 20
122.3162296747333
 10
90.0933890498859
 20
122.3162344431053
  0
LWPOLYLINE
  5
51D
330
1F
100
AcDbEntity
  8
Sichtbare_Kanten_TC_020513_DIN_
  6
Continuous
 62
     7
100
AcDbPolyline
 90
       25
 70
     0
 43
0.0
 10
247.6493672162148
 20
152.1148518060813
 10
247.6294211178878
 20
152.1237805818683
 10
247.6094487935167
 20
152.1327081655623
 10
247.5894573956588
 20
152.1416357492574
 10
247.5694421559428
 20
152.1505633329514
 10
247.5494078427408
 20
152.1594897245533
 10
247.5293544560528
 20
152.1684173082473
 10
247.5092796116928
 20
152.1773436998493
 10
247.4891880780318
 20
152.1862712835433
 10
247.4690798550698
 20
152.1951976751454
 10
247.4489549428088
 20
152.2041252588393
 10
247.4288133412458
 20
152.2130540346273
 10
247.4086550503827
 20
152.2219828104144
 10
247.3884872227768
 20
152.2309103941093
 10
247.3683074742408
 20
152.2398391698963
 10
247.3481181889628
 20
152.2487667535903
 10
247.3279217511278
 20
152.2576943372853
 10
247.3077157765487
 20
152.2666207288864
 10
247.2875026494127
 20
152.2755483125813
 10
247.2672823697188
 20
152.2844747041823
 10
247.2470597058388
 20
152.2934010957843
 10
247.2268298894027
 20
152.3023286794793
 10
247.2065953045938
 20
152.3112562631733
 10
247.1863607197858
 20
152.3201850389603
 10
247.1661213666058
 20
152.3291126226553
  0
LWPOLYLINE
  5
51E
330
1F
100
AcDbEntity
  8
Sichtbare_Kanten_TC_020513_DIN_
  6
Continuous
 62
     7
100
AcDbPolyline
 90
       25
 70
     0
 43
0.0
 10
248.6586192875957
 20
151.8938568567403
 10
248.6108616620158
 20
151.8943956827293
 10
248.5625723630048
 20
151.8960157369743
 10
248.5137823849778
 20
151.8987217878463
 10
248.4645274907207
 20
151.9025186037193
 10
248.4148434430218
 20
151.9074085687763
 10
248.3647660046678
 20
151.9133976434833
 10
248.3143237858868
 20
151.9204894041183
 10
248.2635573178388
 20
151.9286886190543
 10
248.2124975949388
 20
151.9379988645683
 10
248.1612113743879
 20
151.9484201406603
 10
248.1109598904708
 20
151.9597021078234
 10
248.0624369412518
 20
151.9716158842213
 10
248.0157378941628
 20
151.9840255712634
 10
247.9709557324508
 20
151.9967976545463
 10
247.9281858235458
 20
152.0097974275713
 10
247.8875211506938
 20
152.0228901838424
 10
247.8490570813278
 20
152.0359424089553
 10
247.8128913670637
 20
152.0488182043203
 10
247.7791122227768
 20
152.0613840555313
 10
247.7478174000838
 20
152.0735040640003
 10
247.7191022664168
 20
152.0850459074143
 10
247.6930598050219
 20
152.0958736871843
 10
247.6697829991438
 20
152.1058538889053
 10
247.6493672162148
 20
152.1148518060813
  0
LWPOLYLINE
  5
51F
330
1F
100
AcDbEntity
  8
Sichtbare_Kanten_TC_020513_DIN_
  6
Continuous
 62
     7
100
AcDbPolyline
 90
       25
 70
     0
 43
0.0
 10
248.8284591466087
 20
139.1503486370213
 10
248.8073495656147
 20
139.1967130040293
 10
248.7870982915057
 20
139.2434341048363
 10
248.7677029400958
 20
139.2905003165373
 10
248.7491730481287
 20
139.3378994201783
 10
248.7315086156028
 20
139.3856197928554
 10
248.7147167950768
 20
139.4336495136383
 10
248.6987999707358
 20
139.4819760655524
 10
248.6837629109518
 20
139.5305881237153
 10
248.6696103840959
 20
139.5794734691743
 10
248.6563447743548
 20
139.6286198829774
 10
248.6439708500997
 20
139.6780154441964
 10
248.6324909955158
 20
139.7276488279473
 10
248.6219195157188
 20
139.7774830793503
 10
248.6122587948938
 20
139.8274800514343
 10
248.6035112172257
 20
139.8776284193163
 10
248.5956767827168
 20
139.9279150699743
 10
248.5887626439227
 20
139.9783268903853
 10
248.5827640324728
 20
140.0288525556693
 10
248.5776833325518
 20
140.0794789528023
 10
248.5735253125328
 20
140.1301929687623
 10
248.5702875882288
 20
140.1809826826223
 10
248.5679749280108
 20
140.2318355774054
 10
248.5665849476948
 20
140.2827385400893
 10
248.5661200314658
 20
140.3336796497473
  0
LWPOLYLINE
  5
520
330
1F
100
AcDbEntity
  8
Sichtbare_Kanten_TC_020513_DIN_
  6
Continuous
 62
     7
100
AcDbPolyline
 90
       25
 70
     0
 43
0.0
 10
249.9661210805078
 20
140.3336796497473
 10
249.9663523465288
 20
140.3082093929413
 10
249.9670485287798
 20
140.2827576135763
 10
249.9682048588888
 20
140.2573314642083
 10
249.9698237210408
 20
140.2319363092553
 10
249.9719027310508
 20
140.2065793012743
 10
249.9744418889179
 20
140.1812664007314
 10
249.9774411946427
 20
140.1560035680894
 10
249.9808982640398
 20
140.1307973598603
 10
249.9848154812948
 20
140.1056543325553
 10
249.9891904622209
 20
140.0805798505913
 10
249.9940208226338
 20
140.0555816625723
 10
249.9993065625328
 20
140.0306645368703
 10
250.0050452977318
 20
140.0058475469713
 10
250.0112322598588
 20
139.9811497663623
 10
250.0178650647299
 20
139.9565765594613
 10
250.0249413281578
 20
139.9321338867314
 10
250.0324610501428
 20
139.9078277086383
 10
250.0404194623127
 20
139.8836645816934
 10
250.0488141804828
 20
139.8596498703134
 10
250.0576475888387
 20
139.8357895349623
 10
250.0669125348229
 20
139.8120901321533
 10
250.0766090184348
 20
139.7885570263033
 10
250.0867346554888
 20
139.7651961778763
 10
250.0972894459857
 20
139.7420141433844
  0
LWPOLYLINE
  5
521
330
1F
100
AcDbEntity
  8
Sichtbare_Kanten_TC_020513_DIN_
  6
Continuous
 62
     7
100
AcDbPolyline
 90
       25
 70
     0
 43
0.0
 10
249.0568021565578
 20
151.8938568567403
 10
249.1225150853298
 20
151.9856742357383
 10
249.1919473439359
 20
152.0748535131583
 10
249.2650250226158
 20
152.1612754797103
 10
249.3416336804527
 20
152.2447780107623
 10
249.4214514523648
 20
152.3250070547233
 10
249.5043305188318
 20
152.4018422102103
 10
249.5901588231228
 20
152.4752000307203
 10
249.6788243085047
 20
152.5450018381243
 10
249.7702173024317
 20
152.6111641859183
 10
249.8642233639858
 20
152.6736060117843
 10
249.9607328206197
 20
152.7322450613143
 10
250.0596312314167
 20
152.7870002721913
 10
250.1608089238308
 20
152.8377893900043
 10
250.2640751629968
 20
152.8844979738363
 10
250.3690770894188
 20
152.9269615148673
 10
250.4756668835777
 20
152.9651299451953
 10
250.5837157994408
 20
152.9989579652913
 10
250.6930879384178
 20
153.0284026598103
 10
250.8036378651757
 20
153.0534151529433
 10
250.9150556355618
 20
153.0739227270254
 10
251.0271505147118
 20
153.0899003481033
 10
251.1397866040367
 20
153.1013313268784
 10
251.2528232365748
 20
153.1082013582353
 10
251.3661221295498
 20
153.1104937528733
  0
LWPOLYLINE
  5
522
330
1F
100
AcDbEntity
  8
Sichtbare_Kanten_TC_020513_DIN_
  6
Continuous
 62
     7
100
AcDbPolyline
 90
       25
 70
     0
 43
0.0
 10
251.3661221295498
 20
151.7104938959243
 10
251.2944749623438
 20
151.7086592649583
 10
251.2231615811488
 20
151.7031756376393
 10
251.1523155003687
 20
151.6940704321033
 10
251.0820726185938
 20
151.6813746427663
 10
251.0125736027857
 20
151.6651168798573
 10
250.9439519673488
 20
151.6453245615133
 10
250.8763483792448
 20
151.6220286821493
 10
250.8098987370628
 20
151.5952578519943
 10
250.7448581486838
 20
151.5650990938313
 10
250.6815747052328
 20
151.5317204927573
 10
250.6201652318138
 20
151.4952090715533
 10
250.5607465535298
 20
151.4556447004443
 10
250.5034307271138
 20
151.4131108259323
 10
250.4483321934837
 20
151.3676897024284
 10
250.3955630093707
 20
151.3194623922474
 10
250.3452376156948
 20
151.2685123418933
 10
250.2975229054588
 20
151.2149826025134
 10
250.2526882916588
 20
151.1591795419823
 10
250.2108196049828
 20
151.1012402509813
 10
250.1719931393758
 20
151.0412851308953
 10
250.1362780362268
 20
150.9794357751974
 10
250.1037458211078
 20
150.9158102010854
 10
250.0744704037808
 20
150.8505311941273
 10
250.0485256940028
 20
150.7837179636123
  0
LWPOLYLINE
  5
523
330
1F
100
AcDbEntity
  8
Sichtbare_Kanten_TC_020513_DIN_
  6
Continuous
 62
     7
100
AcDbPolyline
 90
       25
 70
     0
 43
0.0
 10
250.0485256940028
 20
150.7837179636123
 10
250.0436309605738
 20
150.7698265051014
 10
250.0383332997457
 20
150.7541790937553
 10
250.0327161580228
 20
150.7368710970053
 10
250.0268701344627
 20
150.7180026506553
 10
250.0208786755698
 20
150.6976715063223
 10
250.0148347645898
 20
150.6759754156243
 10
250.0088218480248
 20
150.6530145143633
 10
250.0029281407488
 20
150.6288853620654
 10
249.9972418576378
 20
150.6036857103473
 10
249.9918512135639
 20
150.5775168871053
 10
249.9868444234027
 20
150.5504742597703
 10
249.9823621541158
 20
150.5232277845513
 10
249.9785712987078
 20
150.4973402952323
 10
249.9754217892777
 20
150.4729035829674
 10
249.9728540211817
 20
150.4499271844993
 10
249.9708060055868
 20
150.4284206365713
 10
249.9692229062218
 20
150.4083958601123
 10
249.9680451184408
 20
150.3898600076803
 10
249.9672082692288
 20
150.3728238081103
 10
249.9666599064968
 20
150.3572979902394
 10
249.9663356572289
 20
150.3432920908103
 10
249.9661759167807
 20
150.3308168386583
 10
249.9661258488788
 20
150.3198805784353
 10
249.9661210805078
 20
150.3104940389754
  0
SOLID
  5
524
330
1F
100
AcDbEntity
  8
Symbole_TC_020513_DIN_
 62
     7
100
AcDbTrace
 10
246.1488377254535
 20
76.68750378604827
 30
0.0
 11
245.6421748918402
 21
76.26726305020763
 31
0.0
 12
244.2994836598488
 22
78.4016265692197
 32
0.0
 13
244.2994836598488
 23
78.4016265692197
 33
0.0
  0
LEADER
  5
525
330
1F
100
AcDbEntity
  8
Symbole_TC_020513_DIN_
  6
Continuous
 62
     7
100
AcDbLeader
  3
Standard
 71
     0
 76
     3
 10
244.2994836598488
 20
78.4016265692197
 30
0.0
 10
254.7701068837718
 20
65.77772988362531
 30
0.0
 10
256.4701068837719
 20
65.77772988362531
 30
0.0
  0
DIMENSION
  5
531
330
1F
100
AcDbEntity
  8
Bemaßungen_TC_020513_DIN_
100
AcDbDimension
  2
*D3
 10
183.8280478215469
 20
112.4748715776573
 30
0.0
 11
179.4086753795278
 21
97.36955643441033
 31
0.0
 70
    32
  1
PG21
 71
     5
 42
-1.0
 53
90.0
  3
ME10_DIM_10
100
AcDbAlignedDimension
 13
171.8037194169738
 23
83.37087157765691
 33
0.0
 14
171.8037194169738
 24
112.4748715776573
 34
0.0
 50
90.0
100
AcDbRotatedDimension
  0
DIMENSION
  5
53C
330
1F
100
AcDbEntity
  8
Bemaßungen_TC_020513_DIN_
100
AcDbDimension
  2
*D4
 10
17.80371941697425
 20
78.5328715776568
 30
0.0
 11
13.42970850292238
 21
119.7314868573293
 31
0.0
 70
    32
  1
81
 71
     5
 42
-1.0
 53
90.0
  3
ME10_DIM_11
100
AcDbAlignedDimension
 13
36.80371941697416
 23
159.5328715776574
 33
0.0
 14
27.80371941697416
 24
78.53287157765689
 34
0.0
 50
90.0
100
AcDbRotatedDimension
  0
DIMENSION
  5
547
330
1F
100
AcDbEntity
  8
Bemaßungen_TC_020513_DIN_
100
AcDbDimension
  2
*D5
 10
267.7334336315698
 20
169.5328715776572
 30
0.0
 11
230.9011244028708
 21
173.8328715776573
 31
0.0
 70
    32
  1
74
 71
     5
 42
-1.0
 53
0.00013888888889
  3
ME10_DIM_12
100
AcDbAlignedDimension
 13
193.2994836598468
 23
82.53287157765689
 33
0.0
 14
267.7334336315698
 24
123.5328715776574
 34
0.0
100
AcDbRotatedDimension
  0
DIMENSION
  5
552
330
1F
100
AcDbEntity
  8
Bemaßungen_TC_020513_DIN_
100
AcDbDimension
  2
*D6
 10
280.949483659851
 20
141.532871577657
 30
0.0
 11
276.5730852969588
 21
110.3865004998943
 31
0.0
 70
    32
  1
63
 71
     5
 42
-1.0
 53
90.0
  3
ME10_DIM_13
100
AcDbAlignedDimension
 13
250.2994836598468
 23
78.53287157765689
 33
0.0
 14
240.9494836598507
 24
141.5328715776574
 34
0.0
 50
90.0
100
AcDbRotatedDimension
  0
DIMENSION
  5
55D
330
1F
100
AcDbEntity
  8
Bemaßungen_TC_020513_DIN_
100
AcDbDimension
  2
*D7
 10
269.7546718836309
 20
78.53287157765693
 30
0.0
 11
265.4546718836309
 21
80.7574350155833
 31
0.0
 70
    32
  1
4
 71
     5
 42
-1.0
 53
90.0
  3
ME10_DIM_14
100
AcDbAlignedDimension
 13
250.2994836598468
 23
82.53287157765689
 33
0.0
 14
250.2994836598468
 24
78.53287157765689
 34
0.0
 50
90.0
100
AcDbRotatedDimension
  0
DIMENSION
  5
568
330
1F
100
AcDbEntity
  8
Bemaßungen_TC_020513_DIN_
100
AcDbDimension
  2
*D8
 10
244.2994836598483
 20
64.53287157765688
 30
0.0
 11
222.0791016680338
 21
68.89255779866642
 31
0.0
 70
    32
  1
45
 71
     5
 42
-1.0
 53
0.00013888888889
  3
ME10_DIM_15
100
AcDbAlignedDimension
 13
199.2994836598488
 23
80.53287157765689
 33
0.0
 14
244.2994836598488
 24
80.53287157765689
 34
0.0
100
AcDbRotatedDimension
  0
DIMENSION
  5
573
330
1F
100
AcDbEntity
  8
Bemaßungen_TC_020513_DIN_
100
AcDbDimension
  2
*D9
 10
250.2994836598469
 20
56.53287157765688
 30
0.0
 11
222.1626623774458
 21
60.89255779866642
 31
0.0
 70
    32
  1
57
 71
     5
 42
-1.0
 53
0.00013888888889
  3
ME10_DIM_16
100
AcDbAlignedDimension
 13
193.2994836598468
 23
78.53287157765689
 33
0.0
 14
250.2994836598468
 24
80.53287157765689
 34
0.0
100
AcDbRotatedDimension
  0
DIMENSION
  5
57E
330
1F
100
AcDbEntity
  8
Bemaßungen_TC_020513_DIN_
100
AcDbDimension
  2
*D10
 10
33.80371941697419
 20
64.53287157765688
 30
0.0
 11
100.4248858562648
 21
68.90926994054911
 31
0.0
 70
    32
  1
132
 71
     5
 42
-1.0
 53
0.00013888888889
  3
ME10_DIM_17
100
AcDbAlignedDimension
 13
165.8037194169738
 23
80.53287157765689
 33
0.0
 14
33.80371941697416
 24
80.53287157765689
 34
0.0
100
AcDbRotatedDimension
  0
DIMENSION
  5
589
330
1F
100
AcDbEntity
  8
Bemaßungen_TC_020513_DIN_
100
AcDbDimension
  2
*D11
 10
27.80371941697389
 20
56.53287157765694
 30
0.0
 11
100.4141423364828
 21
60.84719627069922
 31
0.0
 70
    32
  1
144
 71
     5
 42
-1.0
 53
0.00013888888889
  3
ME10_DIM_18
100
AcDbAlignedDimension
 13
171.8037194169738
 23
78.53287157765689
 33
0.0
 14
27.80371941697416
 24
80.53287157765689
 34
0.0
100
AcDbRotatedDimension
  0
DIMENSION
  5
594
330
1F
100
AcDbEntity
  8
Bemaßungen_TC_020513_DIN_
100
AcDbDimension
  2
*D12
 10
32.80371941697389
 20
168.8315161098161
 30
0.0
 11
100.4141423364828
 21
173.2079144727083
 31
0.0
 70
    32
  1
134
 71
     5
 42
-1.0
 53
0.00013888888889
  3
ME10_DIM_19
100
AcDbAlignedDimension
 13
166.8037194169738
 23
134.5328715776574
 33
0.0
 14
32.80371941697416
 24
134.5328715776574
 34
0.0
100
AcDbRotatedDimension
  0
ENDSEC
  0
SECTION
  2
OBJECTS
  0
DICTIONARY
  5
C
330
0
100
AcDbDictionary
281
     1
  3
ACAD_GROUP
350
D
  3
ACAD_LAYOUT
350
1A
  3
ACAD_MATERIAL
350
3B
  3
ACAD_MLEADERSTYLE
350
597
  3
ACAD_MLINESTYLE
350
17
  3
ACAD_PLOTSETTINGS
350
19
  3
ACAD_PLOTSTYLENAME
350
E
  3
ACAD_VISUALSTYLE
350
2A
  3
AcDbVariableDictionary
350
595
  0
DICTIONARY
  5
D
102
{ACAD_REACTORS
330
C
102
}
330
C
100
AcDbDictionary
281
     1
  0
DICTIONARY
  5
1A
102
{ACAD_REACTORS
330
C
102
}
330
C
100
AcDbDictionary
281
     1
  3
Layout1
350
1E
  3
Layout2
350
26
  3
Model
350
22
  0
DICTIONARY
  5
3B
102
{ACAD_REACTORS
330
C
102
}
330
C
100
AcDbDictionary
281
     1
  3
ByBlock
350
3D
  3
ByLayer
350
3C
  3
Global
350
3E
  0
DICTIONARY
  5
597
102
{ACAD_REACTORS
330
C
102
}
330
C
100
AcDbDictionary
281
     1
  0
DICTIONARY
  5
17
102
{ACAD_REACTORS
330
C
102
}
330
C
100
AcDbDictionary
281
     1
  3
Standard
350
18
  0
DICTIONARY
  5
19
102
{ACAD_REACTORS
330
C
102
}
330
C
100
AcDbDictionary
281
     1
  0
ACDBDICTIONARYWDFLT
  5
E
102
{ACAD_REACTORS
330
C
102
}
330
C
100
AcDbDictionary
281
     1
  3
Normal
350
F
100
AcDbDictionaryWithDefault
340
F
  0
DICTIONARY
  5
2A
102
{ACAD_REACTORS
330
C
102
}
330
C
100
AcDbDictionary
281
     1
  3
2dWireframe
350
2F
  3
3D Hidden
350
31
  3
3dWireframe
350
30
  3
Basic
350
32
  3
Brighten
350
36
  3
ColorChange
350
3A
  3
Conceptual
350
34
  3
Dim
350
35
  3
Facepattern
350
39
  3
Flat
350
2B
  3
FlatWithEdges
350
2C
  3
Gouraud
350
2D
  3
GouraudWithEdges
350
2E
  3
Linepattern
350
38
  3
Realistic
350
33
  3
Thicken
350
37
  0
DICTIONARY
  5
595
102
{ACAD_REACTORS
330
C
102
}
330
C
100
AcDbDictionary
281
     1
  3
DIMASSOC
350
598
  3
HIDETEXT
350
599
  0
LAYOUT
  5
1E
102
{ACAD_REACTORS
330
1A
102
}
330
1A
100
AcDbPlotSettings
  1

  2
none_device
  4

  6

 40
0.0
 41
0.0
 42
0.0
 43
0.0
 44
0.0
 45
0.0
 46
0.0
 47
0.0
 48
0.0
 49
0.0
140
0.0
141
0.0
142
1.0
143
1.0
 70
   688
 72
     0
 73
     0
 74
     5
  7

 75
    16
147
1.0
148
0.0
149
0.0
100
AcDbLayout
  1
Layout1
 70
     1
 71
     1
 10
0.0
 20
0.0
 11
12.0
 21
9.0
 12
0.0
 22
0.0
 32
0.0
 14
1.00000000000000E+20
 24
1.00000000000000E+20
 34
1.00000000000000E+20
 15
-1.00000000000000E+20
 25
-1.00000000000000E+20
 35
-1.00000000000000E+20
146
0.0
 13
0.0
 23
0.0
 33
0.0
 16
1.0
 26
0.0
 36
0.0
 17
0.0
 27
1.0
 37
0.0
 76
     0
330
1B
  0
LAYOUT
  5
26
102
{ACAD_REACTORS
330
1A
102
}
330
1A
100
AcDbPlotSettings
  1

  2
none_device
  4

  6

 40
0.0
 41
0.0
 42
0.0
 43
0.0
 44
0.0
 45
0.0
 46
0.0
 47
0.0
 48
0.0
 49
0.0
140
0.0
141
0.0
142
1.0
143
1.0
 70
   688
 72
     0
 73
     0
 74
     5
  7

 75
    16
147
1.0
148
0.0
149
0.0
100
AcDbLayout
  1
Layout2
 70
     1
 71
     2
 10
0.0
 20
0.0
 11
0.0
 21
0.0
 12
0.0
 22
0.0
 32
0.0
 14
0.0
 24
0.0
 34
0.0
 15
0.0
 25
0.0
 35
0.0
146
0.0
 13
0.0
 23
0.0
 33
0.0
 16
1.0
 26
0.0
 36
0.0
 17
0.0
 27
1.0
 37
0.0
 76
     0
330
23
  0
LAYOUT
  5
22
102
{ACAD_REACTORS
330
1A
102
}
330
1A
100
AcDbPlotSettings
  1

  2
none_device
  4

  6

 40
0.0
 41
0.0
 42
0.0
 43
0.0
 44
0.0
 45
0.0
 46
0.0
 47
0.0
 48
0.0
 49
0.0
140
0.0
141
0.0
142
1.0
143
1.0
 70
  1712
 72
     0
 73
     0
 74
     0
  7

 75
     0
147
1.0
148
0.0
149
0.0
100
AcDbLayout
  1
Model
 70
     1
 71
     0
 10
0.0
 20
0.0
 11
12.0
 21
9.0
 12
0.0
 22
0.0
 32
0.0
 14
0.0
 24
0.0
 34
0.0
 15
297.0000000000001
 25
210.0000000000001
 35
0.0
146
0.0
 13
0.0
 23
0.0
 33
0.0
 16
1.0
 26
0.0
 36
0.0
 17
0.0
 27
1.0
 37
0.0
 76
     0
330
1F
331
29
  0
MATERIAL
  5
3D
102
{ACAD_REACTORS
330
3B
102
}
102
{ACAD_XDICTIONARY
360
5BC
102
}
330
3B
100
AcDbMaterial
  1
ByBlock
  0
MATERIAL
  5
3C
102
{ACAD_REACTORS
330
3B
102
}
102
{ACAD_XDICTIONARY
360
5BA
102
}
330
3B
100
AcDbMaterial
  1
ByLayer
  0
MATERIAL
  5
3E
102
{ACAD_REACTORS
330
3B
102
}
102
{ACAD_XDICTIONARY
360
5BE
102
}
330
3B
100
AcDbMaterial
  1
Global
  0
MLINESTYLE
  5
18
102
{ACAD_REACTORS
330
17
102
}
330
17
100
AcDbMlineStyle
  2
Standard
 70
     0
  3

 62
   256
 51
90.0
 52
90.0
 71
     2
 49
0.5
 62
   256
  6
BYLAYER
 49
-0.5
 62
   256
  6
BYLAYER
  0
ACDBPLACEHOLDER
  5
F
102
{ACAD_REACTORS
330
E
102
}
330
E
  0
VISUALSTYLE
  5
2F
102
{ACAD_REACTORS
330
2A
102
}
102
{ACAD_XDICTIONARY
360
5A2
102
}
330
2A
100
AcDbVisualStyle
  2
2dWireframe
 70
     4
 71
     0
 72
     2
 73
     0
 90
        0
 40
-0.6
 41
-30.0
 62
     5
 63
     7
 74
     1
 91
        4
 64
     7
 65
   257
 75
     1
175
     1
 42
1.0
 92
        0
 66
   257
 43
1.0
 76
     1
 77
     6
 78
     2
 67
     7
 79
     5
170
     0
171
     0
290
     0
174
     0
 93
        1
 44
0.0
173
     0
291
     0
 45
0.0
1001
ACAD
1000
AcDbSavedByObjectVersion
1070
     0
  0
VISUALSTYLE
  5
31
102
{ACAD_REACTORS
330
2A
102
}
102
{ACAD_XDICTIONARY
360
5A6
102
}
330
2A
100
AcDbVisualStyle
  2
3D Hidden
 70
     6
 71
     1
 72
     2
 73
     2
 90
        0
 40
-0.6
 41
-30.0
 62
     5
 63
     7
 74
     2
 91
        2
 64
     7
 65
   257
 75
     2
175
     1
 42
40.0
 92
        0
 66
   257
 43
1.0
 76
     1
 77
     6
 78
     2
 67
     7
 79
     3
170
     0
171
     0
290
     0
174
     0
 93
        1
 44
0.0
173
     0
291
     0
 45
0.0
1001
ACAD
1000
AcDbSavedByObjectVersion
1070
     0
  0
VISUALSTYLE
  5
30
102
{ACAD_REACTORS
330
2A
102
}
102
{ACAD_XDICTIONARY
360
5A4
102
}
330
2A
100
AcDbVisualStyle
  2
3dWireframe
 70
     5
 71
     0
 72
     2
 73
     0
 90
        0
 40
-0.6
 41
-30.0
 62
     5
 63
     7
 74
     1
 91
        4
 64
     7
 65
   257
 75
     1
175
     1
 42
1.0
 92
        0
 66
   257
 43
1.0
 76
     1
 77
     6
 78
     2
 67
     7
 79
     5
170
     0
171
     0
290
     0
174
     0
 93
        1
 44
0.0
173
     0
291
     0
 45
0.0
1001
ACAD
1000
AcDbSavedByObjectVersion
1070
     0
  0
VISUALSTYLE
  5
32
102
{ACAD_REACTORS
330
2A
102
}
102
{ACAD_XDICTIONARY
360
5A8
102
}
330
2A
100
AcDbVisualStyle
  2
Basic
 70
     7
 71
     1
 72
     0
 73
     1
 90
        0
 40
-0.6
 41
-30.0
 62
     5
 63
     7
 74
     0
 91
        4
 64
     7
 65
   257
 75
     1
175
     1
 42
1.0
 92
        8
 66
     7
 43
1.0
 76
     1
 77
     6
 78
     2
 67
     7
 79
     5
170
     0
171
     0
290
     0
174
     0
 93
        1
 44
0.0
173
     0
291
     1
 45
0.0
1001
ACAD
1000
AcDbSavedByObjectVersion
1070
     0
  0
VISUALSTYLE
  5
36
102
{ACAD_REACTORS
330
2A
102
}
102
{ACAD_XDICTIONARY
360
5B0
102
}
330
2A
100
AcDbVisualStyle
  2
Brighten
 70
    12
 71
     2
 72
     2
 73
     0
 90
        0
 40
-0.6
 41
-30.0
 62
     5
 63
     7
 74
     1
 91
        4
 64
     7
 65
   257
 75
     1
175
     1
 42
1.0
 92
        8
 66
     7
 43
1.0
 76
     1
 77
     6
 78
     2
 67
     7
 79
     5
170
     0
171
     0
290
     0
174
     0
 93
        1
 44
50.0
173
     0
291
     1
 45
0.0
1001
ACAD
1000
AcDbSavedByObjectVersion
1070
     0
  0
VISUALSTYLE
  5
3A
102
{ACAD_REACTORS
330
2A
102
}
102
{ACAD_XDICTIONARY
360
5B8
102
}
330
2A
100
AcDbVisualStyle
  2
ColorChange
 70
    16
 71
     2
 72
     2
 73
     3
 90
        0
 40
-0.6
 41
-30.0
 62
     5
 63
     8
 74
     1
 91
        4
 64
     7
 65
   257
 75
     1
175
     1
 42
1.0
 92
        8
 66
     8
 43
1.0
 76
     1
 77
     6
 78
     2
 67
     7
 79
     5
170
     0
171
     0
290
     0
174
     0
 93
        1
 44
0.0
173
     0
291
     1
 45
0.0
1001
ACAD
1000
AcDbSavedByObjectVersion
1070
     0
  0
VISUALSTYLE
  5
34
102
{ACAD_REACTORS
330
2A
102
}
102
{ACAD_XDICTIONARY
360
5AC
102
}
330
2A
100
AcDbVisualStyle
  2
Conceptual
 70
     9
 71
     3
 72
     2
 73
     0
 90
        0
 40
-0.6
 41
-30.0
 62
     5
 63
     7
 74
     2
 91
        2
 64
     7
 65
   257
 75
     1
175
     1
 42
40.0
 92
        8
 66
     7
 43
1.0
 76
     1
 77
     6
 78
     2
 67
     7
 79
     3
170
     0
171
     0
290
     0
174
     0
 93
        1
 44
0.0
173
     0
291
     0
 45
0.0
1001
ACAD
1000
AcDbSavedByObjectVersion
1070
     0
  0
VISUALSTYLE
  5
35
102
{ACAD_REACTORS
330
2A
102
}
102
{ACAD_XDICTIONARY
360
5AE
102
}
330
2A
100
AcDbVisualStyle
  2
Dim
 70
    11
 71
     2
 72
     2
 73
     0
 90
        0
 40
-0.6
 41
-30.0
 62
     5
 63
     7
 74
     1
 91
        4
 64
     7
 65
   257
 75
     1
175
     1
 42
1.0
 92
        8
 66
     7
 43
1.0
 76
     1
 77
     6
 78
     2
 67
     7
 79
     5
170
     0
171
     0
290
     0
174
     0
 93
        1
 44
-50.0
173
     0
291
     1
 45
0.0
1001
ACAD
1000
AcDbSavedByObjectVersion
1070
     0
  0
VISUALSTYLE
  5
39
102
{ACAD_REACTORS
330
2A
102
}
102
{ACAD_XDICTIONARY
360
5B6
102
}
330
2A
100
AcDbVisualStyle
  2
Facepattern
 70
    15
 71
     2
 72
     2
 73
     0
 90
        0
 40
-0.6
 41
-30.0
 62
     5
 63
     7
 74
     1
 91
        4
 64
     7
 65
   257
 75
     1
175
     1
 42
1.0
 92
        8
 66
     7
 43
1.0
 76
     1
 77
     6
 78
     2
 67
     7
 79
     5
170
     0
171
     0
290
     0
174
     0
 93
        1
 44
0.0
173
     0
291
     1
 45
0.0
1001
ACAD
1000
AcDbSavedByObjectVersion
1070
     0
  0
VISUALSTYLE
  5
2B
102
{ACAD_REACTORS
330
2A
102
}
102
{ACAD_XDICTIONARY
360
59A
102
}
330
2A
100
AcDbVisualStyle
  2
Flat
 70
     0
 71
     2
 72
     1
 73
     1
 90
        2
 40
-0.6
 41
30.0
 62
     5
 63
     7
 74
     0
 91
        4
 64
     7
 65
   257
 75
     1
175
     1
 42
1.0
 92
        8
 66
     7
 43
1.0
 76
     1
 77
     6
 78
     2
 67
     7
 79
     5
170
     0
171
     0
290
     0
174
     0
 93
       13
 44
0.0
173
     0
291
     1
 45
0.0
1001
ACAD
1000
AcDbSavedByObjectVersion
1070
     0
  0
VISUALSTYLE
  5
2C
102
{ACAD_REACTORS
330
2A
102
}
102
{ACAD_XDICTIONARY
360
59C
102
}
330
2A
100
AcDbVisualStyle
  2
FlatWithEdges
 70
     1
 71
     2
 72
     1
 73
     1
 90
        2
 40
-0.6
 41
30.0
 62
     5
 63
     7
 74
     1
 91
        4
 64
     7
 65
   257
 75
     1
175
     1
 42
1.0
 92
        0
 66
   257
 43
1.0
 76
     1
 77
     6
 78
     2
 67
     7
 79
     5
170
     0
171
     0
290
     0
174
     0
 93
       13
 44
0.0
173
     0
291
     1
 45
0.0
1001
ACAD
1000
AcDbSavedByObjectVersion
1070
     0
  0
VISUALSTYLE
  5
2D
102
{ACAD_REACTORS
330
2A
102
}
102
{ACAD_XDICTIONARY
360
59E
102
}
330
2A
100
AcDbVisualStyle
  2
Gouraud
 70
     2
 71
     2
 72
     2
 73
     1
 90
        2
 40
-0.6
 41
30.0
 62
     5
 63
     7
 74
     0
 91
        4
 64
     7
 65
   257
 75
     1
175
     1
 42
1.0
 92
        0
 66
     7
 43
1.0
 76
     1
 77
     6
 78
     2
 67
     7
 79
     5
170
     0
171
     0
290
     0
174
     0
 93
       13
 44
0.0
173
     0
291
     1
 45
0.0
1001
ACAD
1000
AcDbSavedByObjectVersion
1070
     0
  0
VISUALSTYLE
  5
2E
102
{ACAD_REACTORS
330
2A
102
}
102
{ACAD_XDICTIONARY
360
5A0
102
}
330
2A
100
AcDbVisualStyle
  2
GouraudWithEdges
 70
     3
 71
     2
 72
     2
 73
     1
 90
        2
 40
-0.6
 41
30.0
 62
     5
 63
     7
 74
     1
 91
        4
 64
     7
 65
   257
 75
     1
175
     1
 42
1.0
 92
        0
 66
   257
 43
1.0
 76
     1
 77
     6
 78
     2
 67
     7
 79
     5
170
     0
171
     0
290
     0
174
     0
 93
       13
 44
0.0
173
     0
291
     1
 45
0.0
1001
ACAD
1000
AcDbSavedByObjectVersion
1070
     0
  0
VISUALSTYLE
  5
38
102
{ACAD_REACTORS
330
2A
102
}
102
{ACAD_XDICTIONARY
360
5B4
102
}
330
2A
100
AcDbVisualStyle
  2
Linepattern
 70
    14
 71
     2
 72
     2
 73
     0
 90
        0
 40
-0.6
 41
-30.0
 62
     5
 63
     7
 74
     1
 91
        4
 64
     7
 65
   257
 75
     7
175
     7
 42
1.0
 92
        8
 66
     7
 43
1.0
 76
     1
 77
     6
 78
     2
 67
     7
 79
     5
170
     0
171
     0
290
     0
174
     0
 93
        1
 44
0.0
173
     0
291
     1
 45
0.0
1001
ACAD
1000
AcDbSavedByObjectVersion
1070
     0
  0
VISUALSTYLE
  5
33
102
{ACAD_REACTORS
330
2A
102
}
102
{ACAD_XDICTIONARY
360
5AA
102
}
330
2A
100
AcDbVisualStyle
  2
Realistic
 70
     8
 71
     2
 72
     2
 73
     0
 90
        0
 40
-0.6
 41
-30.0
 62
     5
 63
     7
 74
     1
 91
        0
 64
     7
 65
   257
 75
     1
175
     1
 42
1.0
 92
        8
 66
     8
 43
1.0
 76
     1
 77
     6
 78
     2
 67
     7
 79
     5
170
     0
171
     0
290
     0
174
     0
 93
       13
 44
0.0
173
     0
291
     0
 45
0.0
1001
ACAD
1000
AcDbSavedByObjectVersion
1070
     0
  0
VISUALSTYLE
  5
37
102
{ACAD_REACTORS
330
2A
102
}
102
{ACAD_XDICTIONARY
360
5B2
102
}
330
2A
100
AcDbVisualStyle
  2
Thicken
 70
    13
 71
     2
 72
     2
 73
     0
 90
        0
 40
-0.6
 41
-30.0
 62
     5
 63
     7
 74
     1
 91
        4
 64
     7
 65
   257
 75
     1
175
     1
 42
1.0
 92
       12
 66
     7
 43
1.0
 76
     1
 77
     6
 78
     2
 67
     7
 79
     5
170
     0
171
     0
290
     0
174
     0
 93
        1
 44
0.0
173
     0
291
     1
 45
0.0
1001
ACAD
1000
AcDbSavedByObjectVersion
1070
     0
  0
DICTIONARYVAR
  5
598
102
{ACAD_REACTORS
330
595
102
}
330
595
100
DictionaryVariables
280
     0
  1
2
  0
DICTIONARYVAR
  5
599
102
{ACAD_REACTORS
330
595
102
}
330
595
100
DictionaryVariables
280
     0
  1
1
  0
DICTIONARY
  5
5BC
330
3D
100
AcDbDictionary
280
     1
281
     1
  3
ACAD_XREC_ROUNDTRIP
360
5BD
  0
DICTIONARY
  5
5BA
330
3C
100
AcDbDictionary
280
     1
281
     1
  3
ACAD_XREC_ROUNDTRIP
360
5BB
  0
DICTIONARY
  5
5BE
330
3E
100
AcDbDictionary
280
     1
281
     1
  3
ACAD_XREC_ROUNDTRIP
360
5BF
  0
DICTIONARY
  5
5A2
330
2F
100
AcDbDictionary
280
     1
281
     1
  3
ACAD_XREC_ROUNDTRIP
360
5A3
  0
DICTIONARY
  5
5A6
330
31
100
AcDbDictionary
280
     1
281
     1
  3
ACAD_XREC_ROUNDTRIP
360
5A7
  0
DICTIONARY
  5
5A4
330
30
100
AcDbDictionary
280
     1
281
     1
  3
ACAD_XREC_ROUNDTRIP
360
5A5
  0
DICTIONARY
  5
5A8
330
32
100
AcDbDictionary
280
     1
281
     1
  3
ACAD_XREC_ROUNDTRIP
360
5A9
  0
DICTIONARY
  5
5B0
330
36
100
AcDbDictionary
280
     1
281
     1
  3
ACAD_XREC_ROUNDTRIP
360
5B1
  0
DICTIONARY
  5
5B8
330
3A
100
AcDbDictionary
280
     1
281
     1
  3
ACAD_XREC_ROUNDTRIP
360
5B9
  0
DICTIONARY
  5
5AC
330
34
100
AcDbDictionary
280
     1
281
     1
  3
ACAD_XREC_ROUNDTRIP
360
5AD
  0
DICTIONARY
  5
5AE
330
35
100
AcDbDictionary
280
     1
281
     1
  3
ACAD_XREC_ROUNDTRIP
360
5AF
  0
DICTIONARY
  5
5B6
330
39
100
AcDbDictionary
280
     1
281
     1
  3
ACAD_XREC_ROUNDTRIP
360
5B7
  0
DICTIONARY
  5
59A
330
2B
100
AcDbDictionary
280
     1
281
     1
  3
ACAD_XREC_ROUNDTRIP
360
59B
  0
DICTIONARY
  5
59C
330
2C
100
AcDbDictionary
280
     1
281
     1
  3
ACAD_XREC_ROUNDTRIP
360
59D
  0
DICTIONARY
  5
59E
330
2D
100
AcDbDictionary
280
     1
281
     1
  3
ACAD_XREC_ROUNDTRIP
360
59F
  0
DICTIONARY
  5
5A0
330
2E
100
AcDbDictionary
280
     1
281
     1
  3
ACAD_XREC_ROUNDTRIP
360
5A1
  0
DICTIONARY
  5
5B4
330
38
100
AcDbDictionary
280
     1
281
     1
  3
ACAD_XREC_ROUNDTRIP
360
5B5
  0
DICTIONARY
  5
5AA
330
33
100
AcDbDictionary
280
     1
281
     1
  3
ACAD_XREC_ROUNDTRIP
360
5AB
  0
DICTIONARY
  5
5B2
330
37
100
AcDbDictionary
280
     1
281
     1
  3
ACAD_XREC_ROUNDTRIP
360
5B3
  0
XRECORD
  5
5BD
102
{ACAD_REACTORS
330
5BC
102
}
330
5BC
100
AcDbXrecord
280
     1
102
MATERIAL
148
0.0
149
0.0
149
0.0
 93
        0
 94
      127
282
     0
 72
     1
 77
     1
171
     1
175
     1
179
     1
273
     0
  0
XRECORD
  5
5BB
102
{ACAD_REACTORS
330
5BA
102
}
330
5BA
100
AcDbXrecord
280
     1
102
MATERIAL
148
0.0
149
0.0
149
0.0
 93
        0
 94
      127
282
     0
 72
     1
 77
     1
171
     1
175
     1
179
     1
273
     0
  0
XRECORD
  5
5BF
102
{ACAD_REACTORS
330
5BE
102
}
330
5BE
100
AcDbXrecord
280
     1
102
MATERIAL
148
0.0
149
0.0
149
0.0
 93
        0
 94
      127
282
     0
 72
     1
 77
     1
171
     1
175
     1
179
     1
273
     0
  0
XRECORD
  5
5A3
102
{ACAD_REACTORS
330
5A2
102
}
330
5A2
100
AcDbXrecord
280
     1
102
RTVSPropertyOp0
 70
     1
102
RTVSPropertyOp1
 70
     1
102
RTVSPropertyOp2
 70
     1
102
RTVSPropertyOp3
 70
     1
102
RTVSPropertyOp4
 70
     1
102
RTVSPropertyOp5
 70
     1
102
RTVSPropertyOp6
 70
     1
102
RTVSPropertyOp7
 70
     1
102
RTVSPropertyOp8
 70
     1
102
RTVSPropertyOp9
 70
     1
102
RTVSPropertyOp10
 70
     1
102
RTVSPropertyOp11
 70
     1
102
RTVSPropertyOp12
 70
     1
102
RTVSPropertyOp13
 70
     1
102
RTVSPropertyOp14
 70
     1
102
RTVSPropertyOp15
 70
     1
102
RTVSPropertyOp16
 70
     1
102
RTVSPropertyOp17
 70
     1
102
RTVSPropertyOp18
 70
     1
102
RTVSPropertyOp19
 70
     1
102
RTVSPropertyOp20
 70
     1
102
RTVSPropertyOp21
 70
     1
102
RTVSPropertyOp22
 70
     1
102
RTVSPropertyOp23
 70
     1
102
RTVSPropertyOp24
 70
     1
102
RTVSPropertyOp25
 70
     1
102
RTVSPropertyOp26
 70
     1
102
RTVSPropertyOp27
 70
     1
102
RTVSPropertyOp28
 70
     1
102
RTVSPropertyOp29
 70
     1
102
RTVSPropertyOp30
 70
     1
102
RTVSPropertyOp31
 70
     1
102
RTVSPropertyOp32
 70
     1
  0
XRECORD
  5
5A7
102
{ACAD_REACTORS
330
5A6
102
}
330
5A6
100
AcDbXrecord
280
     1
102
RTVSPropertyOp0
 70
     1
102
RTVSPropertyOp1
 70
     1
102
RTVSPropertyOp2
 70
     1
102
RTVSPropertyOp3
 70
     1
102
RTVSPropertyOp4
 70
     1
102
RTVSPropertyOp5
 70
     1
102
RTVSPropertyOp6
 70
     1
102
RTVSPropertyOp7
 70
     1
102
RTVSPropertyOp8
 70
     1
102
RTVSPropertyOp9
 70
     1
102
RTVSPropertyOp10
 70
     1
102
RTVSPropertyOp11
 70
     1
102
RTVSPropertyOp12
 70
     1
102
RTVSPropertyOp13
 70
     1
102
RTVSPropertyOp14
 70
     1
102
RTVSPropertyOp15
 70
     1
102
RTVSPropertyOp16
 70
     1
102
RTVSPropertyOp17
 70
     1
102
RTVSPropertyOp18
 70
     1
102
RTVSPropertyOp19
 70
     1
102
RTVSPropertyOp20
 70
     1
102
RTVSPropertyOp21
 70
     1
102
RTVSPropertyOp22
 70
     1
102
RTVSPropertyOp23
 70
     1
102
RTVSPropertyOp24
 70
     1
102
RTVSPropertyOp25
 70
     1
102
RTVSPropertyOp26
 70
     1
102
RTVSPropertyOp27
 70
     1
102
RTVSPropertyOp28
 70
     1
102
RTVSPropertyOp29
 70
     1
102
RTVSPropertyOp30
 70
     1
102
RTVSPropertyOp31
 70
     1
102
RTVSPropertyOp32
 70
     1
  0
XRECORD
  5
5A5
102
{ACAD_REACTORS
330
5A4
102
}
330
5A4
100
AcDbXrecord
280
     1
102
RTVSPropertyOp0
 70
     1
102
RTVSPropertyOp1
 70
     1
102
RTVSPropertyOp2
 70
     1
102
RTVSPropertyOp3
 70
     1
102
RTVSPropertyOp4
 70
     1
102
RTVSPropertyOp5
 70
     1
102
RTVSPropertyOp6
 70
     1
102
RTVSPropertyOp7
 70
     1
102
RTVSPropertyOp8
 70
     1
102
RTVSPropertyOp9
 70
     1
102
RTVSPropertyOp10
 70
     1
102
RTVSPropertyOp11
 70
     1
102
RTVSPropertyOp12
 70
     1
102
RTVSPropertyOp13
 70
     1
102
RTVSPropertyOp14
 70
     1
102
RTVSPropertyOp15
 70
     1
102
RTVSPropertyOp16
 70
     1
102
RTVSPropertyOp17
 70
     1
102
RTVSPropertyOp18
 70
     1
102
RTVSPropertyOp19
 70
     1
102
RTVSPropertyOp20
 70
     1
102
RTVSPropertyOp21
 70
     1
102
RTVSPropertyOp22
 70
     1
102
RTVSPropertyOp23
 70
     1
102
RTVSPropertyOp24
 70
     1
102
RTVSPropertyOp25
 70
     1
102
RTVSPropertyOp26
 70
     1
102
RTVSPropertyOp27
 70
     1
102
RTVSPropertyOp28
 70
     1
102
RTVSPropertyOp29
 70
     1
102
RTVSPropertyOp30
 70
     1
102
RTVSPropertyOp31
 70
     1
102
RTVSPropertyOp32
 70
     1
  0
XRECORD
  5
5A9
102
{ACAD_REACTORS
330
5A8
102
}
330
5A8
100
AcDbXrecord
280
     1
102
RTVSPropertyOp0
 70
     1
102
RTVSPropertyOp1
 70
     1
102
RTVSPropertyOp2
 70
     1
102
RTVSPropertyOp3
 70
     1
102
RTVSPropertyOp4
 70
     1
102
RTVSPropertyOp5
 70
     1
102
RTVSPropertyOp6
 70
     1
102
RTVSPropertyOp7
 70
     1
102
RTVSPropertyOp8
 70
     1
102
RTVSPropertyOp9
 70
     1
102
RTVSPropertyOp10
 70
     1
102
RTVSPropertyOp11
 70
     1
102
RTVSPropertyOp12
 70
     1
102
RTVSPropertyOp13
 70
     1
102
RTVSPropertyOp14
 70
     1
102
RTVSPropertyOp15
 70
     1
102
RTVSPropertyOp16
 70
     1
102
RTVSPropertyOp17
 70
     1
102
RTVSPropertyOp18
 70
     1
102
RTVSPropertyOp19
 70
     1
102
RTVSPropertyOp20
 70
     1
102
RTVSPropertyOp21
 70
     1
102
RTVSPropertyOp22
 70
     1
102
RTVSPropertyOp23
 70
     1
102
RTVSPropertyOp24
 70
     1
102
RTVSPropertyOp25
 70
     1
102
RTVSPropertyOp26
 70
     1
102
RTVSPropertyOp27
 70
     1
102
RTVSPropertyOp28
 70
     1
102
RTVSPropertyOp29
 70
     1
102
RTVSPropertyOp30
 70
     1
102
RTVSPropertyOp31
 70
     1
102
RTVSPropertyOp32
 70
     1
  0
XRECORD
  5
5B1
102
{ACAD_REACTORS
330
5B0
102
}
330
5B0
100
AcDbXrecord
280
     1
102
RTVSPropertyOp0
 70
     1
102
RTVSPropertyOp1
 70
     1
102
RTVSPropertyOp2
 70
     1
102
RTVSPropertyOp3
 70
     1
102
RTVSPropertyOp4
 70
     1
102
RTVSPropertyOp5
 70
     1
102
RTVSPropertyOp6
 70
     1
102
RTVSPropertyOp7
 70
     1
102
RTVSPropertyOp8
 70
     1
102
RTVSPropertyOp9
 70
     1
102
RTVSPropertyOp10
 70
     1
102
RTVSPropertyOp11
 70
     1
102
RTVSPropertyOp12
 70
     1
102
RTVSPropertyOp13
 70
     1
102
RTVSPropertyOp14
 70
     1
102
RTVSPropertyOp15
 70
     1
102
RTVSPropertyOp16
 70
     1
102
RTVSPropertyOp17
 70
     1
102
RTVSPropertyOp18
 70
     1
102
RTVSPropertyOp19
 70
     1
102
RTVSPropertyOp20
 70
     1
102
RTVSPropertyOp21
 70
     1
102
RTVSPropertyOp22
 70
     1
102
RTVSPropertyOp23
 70
     1
102
RTVSPropertyOp24
 70
     1
102
RTVSPropertyOp25
 70
     1
102
RTVSPropertyOp26
 70
     1
102
RTVSPropertyOp27
 70
     1
102
RTVSPropertyOp28
 70
     1
102
RTVSPropertyOp29
 70
     1
102
RTVSPropertyOp30
 70
     1
102
RTVSPropertyOp31
 70
     1
102
RTVSPropertyOp32
 70
     1
  0
XRECORD
  5
5B9
102
{ACAD_REACTORS
330
5B8
102
}
330
5B8
100
AcDbXrecord
280
     1
102
RTVSPropertyOp0
 70
     1
102
RTVSPropertyOp1
 70
     1
102
RTVSPropertyOp2
 70
     1
102
RTVSPropertyOp3
 70
     1
102
RTVSPropertyOp4
 70
     1
102
RTVSPropertyOp5
 70
     1
102
RTVSPropertyOp6
 70
     1
102
RTVSPropertyOp7
 70
     1
102
RTVSPropertyOp8
 70
     1
102
RTVSPropertyOp9
 70
     1
102
RTVSPropertyOp10
 70
     1
102
RTVSPropertyOp11
 70
     1
102
RTVSPropertyOp12
 70
     1
102
RTVSPropertyOp13
 70
     1
102
RTVSPropertyOp14
 70
     1
102
RTVSPropertyOp15
 70
     1
102
RTVSPropertyOp16
 70
     1
102
RTVSPropertyOp17
 70
     1
102
RTVSPropertyOp18
 70
     1
102
RTVSPropertyOp19
 70
     1
102
RTVSPropertyOp20
 70
     1
102
RTVSPropertyOp21
 70
     1
102
RTVSPropertyOp22
 70
     1
102
RTVSPropertyOp23
 70
     1
102
RTVSPropertyOp24
 70
     1
102
RTVSPropertyOp25
 70
     1
102
RTVSPropertyOp26
 70
     1
102
RTVSPropertyOp27
 70
     1
102
RTVSPropertyOp28
 70
     1
102
RTVSPropertyOp29
 70
     1
102
RTVSPropertyOp30
 70
     1
102
RTVSPropertyOp31
 70
     1
102
RTVSPropertyOp32
 70
     1
  0
XRECORD
  5
5AD
102
{ACAD_REACTORS
330
5AC
102
}
330
5AC
100
AcDbXrecord
280
     1
102
RTVSPropertyOp0
 70
     1
102
RTVSPropertyOp1
 70
     1
102
RTVSPropertyOp2
 70
     1
102
RTVSPropertyOp3
 70
     1
102
RTVSPropertyOp4
 70
     1
102
RTVSPropertyOp5
 70
     1
102
RTVSPropertyOp6
 70
     1
102
RTVSPropertyOp7
 70
     1
102
RTVSPropertyOp8
 70
     1
102
RTVSPropertyOp9
 70
     1
102
RTVSPropertyOp10
 70
     1
102
RTVSPropertyOp11
 70
     1
102
RTVSPropertyOp12
 70
     1
102
RTVSPropertyOp13
 70
     1
102
RTVSPropertyOp14
 70
     1
102
RTVSPropertyOp15
 70
     1
102
RTVSPropertyOp16
 70
     1
102
RTVSPropertyOp17
 70
     1
102
RTVSPropertyOp18
 70
     1
102
RTVSPropertyOp19
 70
     1
102
RTVSPropertyOp20
 70
     1
102
RTVSPropertyOp21
 70
     1
102
RTVSPropertyOp22
 70
     1
102
RTVSPropertyOp23
 70
     1
102
RTVSPropertyOp24
 70
     1
102
RTVSPropertyOp25
 70
     1
102
RTVSPropertyOp26
 70
     1
102
RTVSPropertyOp27
 70
     1
102
RTVSPropertyOp28
 70
     1
102
RTVSPropertyOp29
 70
     1
102
RTVSPropertyOp30
 70
     1
102
RTVSPropertyOp31
 70
     1
102
RTVSPropertyOp32
 70
     1
  0
XRECORD
  5
5AF
102
{ACAD_REACTORS
330
5AE
102
}
330
5AE
100
AcDbXrecord
280
     1
102
RTVSPropertyOp0
 70
     1
102
RTVSPropertyOp1
 70
     1
102
RTVSPropertyOp2
 70
     1
102
RTVSPropertyOp3
 70
     1
102
RTVSPropertyOp4
 70
     1
102
RTVSPropertyOp5
 70
     1
102
RTVSPropertyOp6
 70
     1
102
RTVSPropertyOp7
 70
     1
102
RTVSPropertyOp8
 70
     1
102
RTVSPropertyOp9
 70
     1
102
RTVSPropertyOp10
 70
     1
102
RTVSPropertyOp11
 70
     1
102
RTVSPropertyOp12
 70
     1
102
RTVSPropertyOp13
 70
     1
102
RTVSPropertyOp14
 70
     1
102
RTVSPropertyOp15
 70
     1
102
RTVSPropertyOp16
 70
     1
102
RTVSPropertyOp17
 70
     1
102
RTVSPropertyOp18
 70
     1
102
RTVSPropertyOp19
 70
     1
102
RTVSPropertyOp20
 70
     1
102
RTVSPropertyOp21
 70
     1
102
RTVSPropertyOp22
 70
     1
102
RTVSPropertyOp23
 70
     1
102
RTVSPropertyOp24
 70
     1
102
RTVSPropertyOp25
 70
     1
102
RTVSPropertyOp26
 70
     1
102
RTVSPropertyOp27
 70
     1
102
RTVSPropertyOp28
 70
     1
102
RTVSPropertyOp29
 70
     1
102
RTVSPropertyOp30
 70
     1
102
RTVSPropertyOp31
 70
     1
102
RTVSPropertyOp32
 70
     1
  0
XRECORD
  5
5B7
102
{ACAD_REACTORS
330
5B6
102
}
330
5B6
100
AcDbXrecord
280
     1
102
RTVSPropertyOp0
 70
     1
102
RTVSPropertyOp1
 70
     1
102
RTVSPropertyOp2
 70
     1
102
RTVSPropertyOp3
 70
     1
102
RTVSPropertyOp4
 70
     1
102
RTVSPropertyOp5
 70
     1
102
RTVSPropertyOp6
 70
     1
102
RTVSPropertyOp7
 70
     1
102
RTVSPropertyOp8
 70
     1
102
RTVSPropertyOp9
 70
     1
102
RTVSPropertyOp10
 70
     1
102
RTVSPropertyOp11
 70
     1
102
RTVSPropertyOp12
 70
     1
102
RTVSPropertyOp13
 70
     1
102
RTVSPropertyOp14
 70
     1
102
RTVSPropertyOp15
 70
     1
102
RTVSPropertyOp16
 70
     1
102
RTVSPropertyOp17
 70
     1
102
RTVSPropertyOp18
 70
     1
102
RTVSPropertyOp19
 70
     1
102
RTVSPropertyOp20
 70
     1
102
RTVSPropertyOp21
 70
     1
102
RTVSPropertyOp22
 70
     1
102
RTVSPropertyOp23
 70
     1
102
RTVSPropertyOp24
 70
     1
102
RTVSPropertyOp25
 70
     1
102
RTVSPropertyOp26
 70
     1
102
RTVSPropertyOp27
 70
     1
102
RTVSPropertyOp28
 70
     1
102
RTVSPropertyOp29
 70
     1
102
RTVSPropertyOp30
 70
     1
102
RTVSPropertyOp31
 70
     1
102
RTVSPropertyOp32
 70
     1
  0
XRECORD
  5
59B
102
{ACAD_REACTORS
330
59A
102
}
330
59A
100
AcDbXrecord
280
     1
102
RTVSPropertyOp0
 70
     1
102
RTVSPropertyOp1
 70
     1
102
RTVSPropertyOp2
 70
     1
102
RTVSPropertyOp3
 70
     1
102
RTVSPropertyOp4
 70
     1
102
RTVSPropertyOp5
 70
     1
102
RTVSPropertyOp6
 70
     1
102
RTVSPropertyOp7
 70
     1
102
RTVSPropertyOp8
 70
     1
102
RTVSPropertyOp9
 70
     1
102
RTVSPropertyOp10
 70
     1
102
RTVSPropertyOp11
 70
     1
102
RTVSPropertyOp12
 70
     1
102
RTVSPropertyOp13
 70
     1
102
RTVSPropertyOp14
 70
     1
102
RTVSPropertyOp15
 70
     1
102
RTVSPropertyOp16
 70
     1
102
RTVSPropertyOp17
 70
     1
102
RTVSPropertyOp18
 70
     1
102
RTVSPropertyOp19
 70
     1
102
RTVSPropertyOp20
 70
     1
102
RTVSPropertyOp21
 70
     1
102
RTVSPropertyOp22
 70
     1
102
RTVSPropertyOp23
 70
     1
102
RTVSPropertyOp24
 70
     1
102
RTVSPropertyOp25
 70
     1
102
RTVSPropertyOp26
 70
     1
102
RTVSPropertyOp27
 70
     1
102
RTVSPropertyOp28
 70
     1
102
RTVSPropertyOp29
 70
     1
102
RTVSPropertyOp30
 70
     1
102
RTVSPropertyOp31
 70
     1
102
RTVSPropertyOp32
 70
     1
  0
XRECORD
  5
59D
102
{ACAD_REACTORS
330
59C
102
}
330
59C
100
AcDbXrecord
280
     1
102
RTVSPropertyOp0
 70
     1
102
RTVSPropertyOp1
 70
     1
102
RTVSPropertyOp2
 70
     1
102
RTVSPropertyOp3
 70
     1
102
RTVSPropertyOp4
 70
     1
102
RTVSPropertyOp5
 70
     1
102
RTVSPropertyOp6
 70
     1
102
RTVSPropertyOp7
 70
     1
102
RTVSPropertyOp8
 70
     1
102
RTVSPropertyOp9
 70
     1
102
RTVSPropertyOp10
 70
     1
102
RTVSPropertyOp11
 70
     1
102
RTVSPropertyOp12
 70
     1
102
RTVSPropertyOp13
 70
     1
102
RTVSPropertyOp14
 70
     1
102
RTVSPropertyOp15
 70
     1
102
RTVSPropertyOp16
 70
     1
102
RTVSPropertyOp17
 70
     1
102
RTVSPropertyOp18
 70
     1
102
RTVSPropertyOp19
 70
     1
102
RTVSPropertyOp20
 70
     1
102
RTVSPropertyOp21
 70
     1
102
RTVSPropertyOp22
 70
     1
102
RTVSPropertyOp23
 70
     1
102
RTVSPropertyOp24
 70
     1
102
RTVSPropertyOp25
 70
     1
102
RTVSPropertyOp26
 70
     1
102
RTVSPropertyOp27
 70
     1
102
RTVSPropertyOp28
 70
     1
102
RTVSPropertyOp29
 70
     1
102
RTVSPropertyOp30
 70
     1
102
RTVSPropertyOp31
 70
     1
102
RTVSPropertyOp32
 70
     1
  0
XRECORD
  5
59F
102
{ACAD_REACTORS
330
59E
102
}
330
59E
100
AcDbXrecord
280
     1
102
RTVSPropertyOp0
 70
     1
102
RTVSPropertyOp1
 70
     1
102
RTVSPropertyOp2
 70
     1
102
RTVSPropertyOp3
 70
     1
102
RTVSPropertyOp4
 70
     1
102
RTVSPropertyOp5
 70
     1
102
RTVSPropertyOp6
 70
     1
102
RTVSPropertyOp7
 70
     1
102
RTVSPropertyOp8
 70
     1
102
RTVSPropertyOp9
 70
     1
102
RTVSPropertyOp10
 70
     1
102
RTVSPropertyOp11
 70
     1
102
RTVSPropertyOp12
 70
     1
102
RTVSPropertyOp13
 70
     1
102
RTVSPropertyOp14
 70
     1
102
RTVSPropertyOp15
 70
     1
102
RTVSPropertyOp16
 70
     1
102
RTVSPropertyOp17
 70
     1
102
RTVSPropertyOp18
 70
     1
102
RTVSPropertyOp19
 70
     1
102
RTVSPropertyOp20
 70
     1
102
RTVSPropertyOp21
 70
     1
102
RTVSPropertyOp22
 70
     1
102
RTVSPropertyOp23
 70
     1
102
RTVSPropertyOp24
 70
     1
102
RTVSPropertyOp25
 70
     1
102
RTVSPropertyOp26
 70
     1
102
RTVSPropertyOp27
 70
     1
102
RTVSPropertyOp28
 70
     1
102
RTVSPropertyOp29
 70
     1
102
RTVSPropertyOp30
 70
     1
102
RTVSPropertyOp31
 70
     1
102
RTVSPropertyOp32
 70
     1
  0
XRECORD
  5
5A1
102
{ACAD_REACTORS
330
5A0
102
}
330
5A0
100
AcDbXrecord
280
     1
102
RTVSPropertyOp0
 70
     1
102
RTVSPropertyOp1
 70
     1
102
RTVSPropertyOp2
 70
     1
102
RTVSPropertyOp3
 70
     1
102
RTVSPropertyOp4
 70
     1
102
RTVSPropertyOp5
 70
     1
102
RTVSPropertyOp6
 70
     1
102
RTVSPropertyOp7
 70
     1
102
RTVSPropertyOp8
 70
     1
102
RTVSPropertyOp9
 70
     1
102
RTVSPropertyOp10
 70
     1
102
RTVSPropertyOp11
 70
     1
102
RTVSPropertyOp12
 70
     1
102
RTVSPropertyOp13
 70
     1
102
RTVSPropertyOp14
 70
     1
102
RTVSPropertyOp15
 70
     1
102
RTVSPropertyOp16
 70
     1
102
RTVSPropertyOp17
 70
     1
102
RTVSPropertyOp18
 70
     1
102
RTVSPropertyOp19
 70
     1
102
RTVSPropertyOp20
 70
     1
102
RTVSPropertyOp21
 70
     1
102
RTVSPropertyOp22
 70
     1
102
RTVSPropertyOp23
 70
     1
102
RTVSPropertyOp24
 70
     1
102
RTVSPropertyOp25
 70
     1
102
RTVSPropertyOp26
 70
     1
102
RTVSPropertyOp27
 70
     1
102
RTVSPropertyOp28
 70
     1
102
RTVSPropertyOp29
 70
     1
102
RTVSPropertyOp30
 70
     1
102
RTVSPropertyOp31
 70
     1
102
RTVSPropertyOp32
 70
     1
  0
XRECORD
  5
5B5
102
{ACAD_REACTORS
330
5B4
102
}
330
5B4
100
AcDbXrecord
280
     1
102
RTVSPropertyOp0
 70
     1
102
RTVSPropertyOp1
 70
     1
102
RTVSPropertyOp2
 70
     1
102
RTVSPropertyOp3
 70
     1
102
RTVSPropertyOp4
 70
     1
102
RTVSPropertyOp5
 70
     1
102
RTVSPropertyOp6
 70
     1
102
RTVSPropertyOp7
 70
     1
102
RTVSPropertyOp8
 70
     1
102
RTVSPropertyOp9
 70
     1
102
RTVSPropertyOp10
 70
     1
102
RTVSPropertyOp11
 70
     1
102
RTVSPropertyOp12
 70
     1
102
RTVSPropertyOp13
 70
     1
102
RTVSPropertyOp14
 70
     1
102
RTVSPropertyOp15
 70
     1
102
RTVSPropertyOp16
 70
     1
102
RTVSPropertyOp17
 70
     1
102
RTVSPropertyOp18
 70
     1
102
RTVSPropertyOp19
 70
     1
102
RTVSPropertyOp20
 70
     1
102
RTVSPropertyOp21
 70
     1
102
RTVSPropertyOp22
 70
     1
102
RTVSPropertyOp23
 70
     1
102
RTVSPropertyOp24
 70
     1
102
RTVSPropertyOp25
 70
     1
102
RTVSPropertyOp26
 70
     1
102
RTVSPropertyOp27
 70
     1
102
RTVSPropertyOp28
 70
     1
102
RTVSPropertyOp29
 70
     1
102
RTVSPropertyOp30
 70
     1
102
RTVSPropertyOp31
 70
     1
102
RTVSPropertyOp32
 70
     1
  0
XRECORD
  5
5AB
102
{ACAD_REACTORS
330
5AA
102
}
330
5AA
100
AcDbXrecord
280
     1
102
RTVSPropertyOp0
 70
     1
102
RTVSPropertyOp1
 70
     1
102
RTVSPropertyOp2
 70
     1
102
RTVSPropertyOp3
 70
     1
102
RTVSPropertyOp4
 70
     1
102
RTVSPropertyOp5
 70
     1
102
RTVSPropertyOp6
 70
     1
102
RTVSPropertyOp7
 70
     1
102
RTVSPropertyOp8
 70
     1
102
RTVSPropertyOp9
 70
     1
102
RTVSPropertyOp10
 70
     1
102
RTVSPropertyOp11
 70
     1
102
RTVSPropertyOp12
 70
     1
102
RTVSPropertyOp13
 70
     1
102
RTVSPropertyOp14
 70
     1
102
RTVSPropertyOp15
 70
     1
102
RTVSPropertyOp16
 70
     1
102
RTVSPropertyOp17
 70
     1
102
RTVSPropertyOp18
 70
     1
102
RTVSPropertyOp19
 70
     1
102
RTVSPropertyOp20
 70
     1
102
RTVSPropertyOp21
 70
     1
102
RTVSPropertyOp22
 70
     1
102
RTVSPropertyOp23
 70
     1
102
RTVSPropertyOp24
 70
     1
102
RTVSPropertyOp25
 70
     1
102
RTVSPropertyOp26
 70
     1
102
RTVSPropertyOp27
 70
     1
102
RTVSPropertyOp28
 70
     1
102
RTVSPropertyOp29
 70
     1
102
RTVSPropertyOp30
 70
     1
102
RTVSPropertyOp31
 70
     1
102
RTVSPropertyOp32
 70
     1
  0
XRECORD
  5
5B3
102
{ACAD_REACTORS
330
5B2
102
}
330
5B2
100
AcDbXrecord
280
     1
102
RTVSPropertyOp0
 70
     1
102
RTVSPropertyOp1
 70
     1
102
RTVSPropertyOp2
 70
     1
102
RTVSPropertyOp3
 70
     1
102
RTVSPropertyOp4
 70
     1
102
RTVSPropertyOp5
 70
     1
102
RTVSPropertyOp6
 70
     1
102
RTVSPropertyOp7
 70
     1
102
RTVSPropertyOp8
 70
     1
102
RTVSPropertyOp9
 70
     1
102
RTVSPropertyOp10
 70
     1
102
RTVSPropertyOp11
 70
     1
102
RTVSPropertyOp12
 70
     1
102
RTVSPropertyOp13
 70
     1
102
RTVSPropertyOp14
 70
     1
102
RTVSPropertyOp15
 70
     1
102
RTVSPropertyOp16
 70
     1
102
RTVSPropertyOp17
 70
     1
102
RTVSPropertyOp18
 70
     1
102
RTVSPropertyOp19
 70
     1
102
RTVSPropertyOp20
 70
     1
102
RTVSPropertyOp21
 70
     1
102
RTVSPropertyOp22
 70
     1
102
RTVSPropertyOp23
 70
     1
102
RTVSPropertyOp24
 70
     1
102
RTVSPropertyOp25
 70
     1
102
RTVSPropertyOp26
 70
     1
102
RTVSPropertyOp27
 70
     1
102
RTVSPropertyOp28
 70
     1
102
RTVSPropertyOp29
 70
     1
102
RTVSPropertyOp30
 70
     1
102
RTVSPropertyOp31
 70
     1
102
RTVSPropertyOp32
 70
     1
  0
ENDSEC
  0
EOF
